Колония / The Colony (Джефф Ренфро / Jeff Renfroe) [2013 г., ужасы, фантастика, боевик, BDRip 720p] Dub [Лицензия] + DVO + 2 AVO + Original (ENG) + Subs (RUS, ENG)

Ответить на тему
 
Автор
Сообщение

TiZAr ®

Пол:

Стаж: 3 года 3 месяца

Сообщений: 836

Репутация: 1157 [+] [-]

Откуда: Россия

Пост 26-Фев-2014 04:48

[Цитировать] 

Колония / The Colony
«Они выжили после апокалипсиса. Но не только они»
- Год выпуска: 2013
Страна: Канада / Alcina Pictures, Item 7, Mad Samurai Productions
Жанр: ужасы, фантастика, боевик
Продолжительность: 01:34:26
Перевод #1: Профессиональный (полное дублирование)
Качество перевода: Лицензия
Перевод #2: Любительский (одноголосый) [den904]
Перевод #3: Любительский (двухголосый, закадровый) [Пираты]
Перевод #4: Любительский (одноголосый) [Вадим Белов]
Cубтитры: русские, английские
Оригинальная аудиодорожка: английская
Навигация по главам: Есть
Режиссер: Джефф Ренфро / Jeff Renfroe
Оффициальный сайт фильма- -В ролях:
Кевин Зегерс, Лоренс Фишбёрн, Шарлотта Салливан, Билл Пэкстон, Аттикус Дин Митчелл, Дрю Вигевер, Джулиан Ричингс, Джон Тенч, Майкл Мэндо, Романо Орцари, Лиза Берри, Люсиус Хойос, Кимберли-Сью Мюррэй, Хелен Тейлор, Джон Хили и др.
Описание:
Постапокалиптический фантастический боевик про людей, пытающихся выжить после природного катаклизма, покрывшего Землю ледяной коркой. Часть выживших обитают в Колонии 7 и поддерживают связь с другими уцелевшими из Колонии 5. После того, как контакт с ними теряется, часть людей отправляется в опасную экспедицию, чтобы выяснить, что произошло с их соседями. Но то, что они найдут превзойдёт все их самые худьшие ожидания…
Тип релиза: BDRip 720p
Контейнер: MKV
Видео: AVC, 1280x544 (2.35:1), 23.976 fps, 5 105 Kbps (0.306 bit/pixel)
Аудио #1: AC-3, 48.0 KHz, 6 ch, 384 Kbps, CBR (Russian) Dub [Лицензия]
Аудио #2: AC-3, 48.0 KHz, 2 ch, 192 Kbps, CBR (Russian) AVO [den904]
Аудио #3: AC-3, 48.0 KHz, 2 ch, 192 Kbps, CBR (Russian) DVO [Пираты]
Аудио #4: AC-3, 48.0 KHz, 2 ch, 192 Kbps, CBR (Russian) AVO [Вадим Белов]
Аудио #5: DTS, 48.0 KHz, 6 ch, 1 510 Kbps, CBR (English) - Original

MI

Код:
General
Unique ID                                : 173696550843496752271372298055686311998 (0x82ACBD25508FC268B1BF03C5809C503E)
Complete name                            : E:\downloads\The.Colony.2013.BluRay.720p.mkv
Format                                   : Matroska
Format version                           : Version 2
File size                                : 5.00 GiB
Duration                                 : 1h 34mn
Overall bit rate                         : 7 575 Kbps
Encoded date                             : UTC 2014-02-23 15:15:37
Writing application                      : mkvmerge v6.7.0 ('Back to the Ground') 64bit built on Jan  8 2014 15:10:52
Writing library                          : libebml v1.3.0 + libmatroska v1.4.1
Video
ID                                       : 1
Format                                   : AVC
Format/Info                              : Advanced Video Codec
Format profile                           : High@L4.1
Format settings, CABAC                   : Yes
Format settings, ReFrames                : 12 frames
Codec ID                                 : V_MPEG4/ISO/AVC
Duration                                 : 1h 34mn
Bit rate                                 : 5 105 Kbps
Width                                    : 1 280 pixels
Height                                   : 544 pixels
Display aspect ratio                     : 2.35:1
Frame rate mode                          : Constant
Frame rate                               : 23.976 fps
Color space                              : YUV
Chroma subsampling                       : 4:2:0
Bit depth                                : 8 bits
Scan type                                : Progressive
Bits/(Pixel*Frame)                       : 0.306
Stream size                              : 3.27 GiB (65%)
Writing library                          : x264 core 136 r2348+704+51 d1baef6 tMod [8-bit@all X86_64]
Encoding settings                        : cabac=1 / ref=12 / deblock=1:-2:-2 / analyse=0x3:0x133 / me=umh / subme=11 / psy=1 / fade_compensate=0.00 / psy_rd=1.05:0.05 / mixed_ref=1 / me_range=32 / chroma_me=1 / trellis=2 / 8x8dct=1 / cqm=0 / deadzone=21,11 / fast_pskip=0 / chroma_qp_offset=-3 / threads=12 / lookahead_threads=2 / sliced_threads=0 / nr=0 / decimate=1 / interlaced=0 / bluray_compat=0 / constrained_intra=0 / fgo=0 / bframes=8 / b_pyramid=2 / b_adapt=2 / b_bias=0 / direct=3 / weightb=1 / open_gop=0 / weightp=2 / keyint=250 / keyint_min=23 / scenecut=40 / intra_refresh=0 / rc=2pass / mbtree=0 / bitrate=5105 / ratetol=1.0 / qcomp=0.70 / qpmin=0:0:0 / qpmax=69:69:69 / qpstep=4 / cplxblur=20.0 / qblur=0.5 / ip_ratio=1.40 / pb_ratio=1.30 / aq=3:0.90 / aq-sensitivity=10.00 / aq-factor=1.00:1.00:1.00 / aq2=0 / aq3=0
Language                                 : English
Default                                  : Yes
Forced                                   : No
Matrix coefficients                      : BT.709
Audio #1
ID                                       : 2
Format                                   : AC-3
Format/Info                              : Audio Coding 3
Mode extension                           : CM (complete main)
Format settings, Endianness              : Big
Codec ID                                 : A_AC3
Duration                                 : 1h 34mn
Bit rate mode                            : Constant
Bit rate                                 : 384 Kbps
Channel count                            : 6 channels
Channel positions                        : Front: L C R, Side: L R, LFE
Sampling rate                            : 48.0 KHz
Bit depth                                : 16 bits
Compression mode                         : Lossy
Stream size                              : 259 MiB (5%)
Title                                    : R5
Language                                 : Russian
Default                                  : Yes
Forced                                   : Yes
Audio #2
ID                                       : 3
Format                                   : AC-3
Format/Info                              : Audio Coding 3
Mode extension                           : CM (complete main)
Format settings, Endianness              : Big
Codec ID                                 : A_AC3
Duration                                 : 1h 34mn
Bit rate mode                            : Constant
Bit rate                                 : 192 Kbps
Channel count                            : 2 channels
Channel positions                        : Front: L R
Sampling rate                            : 48.0 KHz
Bit depth                                : 16 bits
Compression mode                         : Lossy
Stream size                              : 130 MiB (3%)
Title                                    : den904
Language                                 : Russian
Default                                  : No
Forced                                   : No
Audio #3
ID                                       : 4
Format                                   : AC-3
Format/Info                              : Audio Coding 3
Mode extension                           : CM (complete main)
Format settings, Endianness              : Big
Codec ID                                 : A_AC3
Duration                                 : 1h 34mn
Bit rate mode                            : Constant
Bit rate                                 : 192 Kbps
Channel count                            : 2 channels
Channel positions                        : Front: L R
Sampling rate                            : 48.0 KHz
Bit depth                                : 16 bits
Compression mode                         : Lossy
Stream size                              : 130 MiB (3%)
Title                                    : Пираты
Language                                 : Russian
Default                                  : No
Forced                                   : No
Audio #4
ID                                       : 5
Format                                   : AC-3
Format/Info                              : Audio Coding 3
Mode extension                           : CM (complete main)
Format settings, Endianness              : Big
Codec ID                                 : A_AC3
Duration                                 : 1h 34mn
Bit rate mode                            : Constant
Bit rate                                 : 192 Kbps
Channel count                            : 2 channels
Channel positions                        : Front: L R
Sampling rate                            : 48.0 KHz
Bit depth                                : 16 bits
Compression mode                         : Lossy
Stream size                              : 130 MiB (3%)
Title                                    : Ð’.Белов
Language                                 : Russian
Default                                  : No
Forced                                   : No
Audio #5
ID                                       : 6
Format                                   : DTS
Format/Info                              : Digital Theater Systems
Mode                                     : 16
Format settings, Endianness              : Big
Codec ID                                 : A_DTS
Duration                                 : 1h 34mn
Bit rate mode                            : Constant
Bit rate                                 : 1 509 Kbps
Channel count                            : 6 channels
Channel positions                        : Front: L C R, Side: L R, LFE
Sampling rate                            : 48.0 KHz
Bit depth                                : 24 bits
Compression mode                         : Lossy
Stream size                              : 1 019 MiB (20%)
Language                                 : English
Default                                  : No
Forced                                   : No
Text #1
ID                                       : 7
Format                                   : UTF-8
Codec ID                                 : S_TEXT/UTF8
Codec ID/Info                            : UTF-8 Plain Text
Title                                    : an0nym0us, k1ndcat, st_prapor
Language                                 : Russian
Default                                  : No
Forced                                   : No
Text #2
ID                                       : 8
Format                                   : UTF-8
Codec ID                                 : S_TEXT/UTF8
Codec ID/Info                            : UTF-8 Plain Text
Language                                 : English
Default                                  : No
Forced                                   : No
Menu
00:00:00.000                             : en:00:00:00.000
00:05:53.728                             : en:00:05:53.728
00:10:33.591                             : en:00:10:33.591
00:16:26.986                             : en:00:16:26.986
00:22:16.710                             : en:00:22:16.710
00:29:13.001                             : en:00:29:13.001
00:34:23.770                             : en:00:34:23.770
00:41:45.461                             : en:00:41:45.461
00:46:29.829                             : en:00:46:29.829
00:51:49.940                             : en:00:51:49.940
00:56:46.403                             : en:00:56:46.403
01:04:19.856                             : en:01:04:19.856
01:12:08.950                             : en:01:12:08.950
01:16:49.480                             : en:01:16:49.480
01:21:19.416                             : en:01:21:19.416
01:25:46.391                             : en:01:25:46.391

Скриншоты



_________________
Не стоит обращать внимания на отсутствие сидов на моих раздачах. Все мои релизы мультитрекерные - нет сидов, включите DHT.
За релизами в HD качестве обращайтесь в личку, либо отписывайтесь в теме.
[Торрент-статистика]
[Профиль]  [ЛС] 
Показать сообщения:    
Ответить на тему

Текущее время: Сегодня 16:14

Часовой пояс: GMT + 4



Вы не можете начинать темы
Вы не можете отвечать на сообщения
Вы не можете редактировать свои сообщения
Вы не можете удалять свои сообщения
Вы не можете голосовать в опросах
Вы не можете прикреплять файлы к сообщениям
Вы не можете скачивать файлы