Мачо и ботан 2 / 22 Jump Street (Фил Лорд / Phil Lord, Кристофер Миллер / Christopher Miller) [2014 г., комедия, боевик, криминал, BDRip 720p] [Лицензия]

Ответить на тему
 
Автор
Сообщение

ArtZak ®

Пол:

Стаж: 9 лет 5 месяцев

Сообщений: 2829

Репутация: 1366 [+] [-]

Откуда: Россия

Пост 08-Окт-2014 02:10

[Цитировать] 

Мачо и ботан 2 / 22 Jump Street
«Копам под прикрытием крыша не нужна»
- Год выпуска: 2014
Страна: США | 33andout, Cannell Studios, Columbia Pictures, JHF, JHF Productions, LStar Capital, Media Rights Capital, Metro-Goldwyn-Mayer (MGM), Original Film, Stephen J. Cannell Productions
Жанр: комедия, боевик, криминал
Продолжительность: 01:51:56
Перевод: Профессиональный (полное дублирование) [Лицензия]
Субтитры: Русские, английские
Оригинальная аудиодорожка: нет
Навигация по главам: есть
Режиссер: Фил Лорд / Phil Lord, Кристофер Миллер / Christopher Miller- -В ролях:
Ченнинг Татум, Джона Хилл, Айс Кьюб, Уайатт Расселл, Дакс Флэйм, Эдди Дж. Фернандез, Джимми Татро, Джиллиан Белл, Джонни Пембертон, Эмбер Стивенс, Стэнли Вонг, Джо Крест, Тоби Николс, Джон Л. Армихо, Катрина Деспейн и др.
Описание:
Офицерам Шмидту и Дженко теперь предстоит работать под прикрытием в местном колледже. Однако когда Дженко встречает родственную душу в футбольной команде, а Шмидт проникает в богемную среду, они начинают сомневаться в их товариществе…
Релиз от:

Качество видео: BDRip 720p
Формат: MKV
Видео кодек: MPEG-4 AVC
Аудио кодек: AC3
Видео: AVC, 1280x534 (2.40:1) at 23.976 fps, AVC at 3587 kbps avg, 0.219 bit/pixel
Аудио: Russian; AC3; 640 Kbps; CBR; 6 ch; 16 bit; Dub - Blu-ray CEE

MI

Код:
General
Unique ID                                : 151489380481983511999313695180638732539 (0x71F7CB1D181DCBD9582E044A895540FB)
Complete name                            : C:\downloads\22 Jump Street.2014.720p.BluRay.x264-LEONARDO_[scarabey.org].mkv
Format                                   : Matroska
Format version                           : Version 2
File size                                : 3.37 GiB
Duration                                 : 1h 51mn
Overall bit rate                         : 4 313 Kbps
Movie name                               : Release by Leonardo for Scarabey.org
Encoded date                             : UTC 2014-10-11 08:27:19
Writing application                      : mkvmerge v5.0.1 ('Es ist Sommer') built on Oct 23 2011 00:46:40
Writing library                          : libebml v1.2.2 + libmatroska v1.3.0
Attachment                               : Yes
Video
ID                                       : 1
Format                                   : AVC
Format/Info                              : Advanced Video Codec
Format profile                           : High@L4.1
Format settings, CABAC                   : Yes
Format settings, ReFrames                : 8 frames
Codec ID                                 : V_MPEG4/ISO/AVC
Duration                                 : 1h 51mn
Bit rate                                 : 3 587 Kbps
Width                                    : 1 280 pixels
Height                                   : 534 pixels
Display aspect ratio                     : 2.40:1
Frame rate mode                          : Constant
Frame rate                               : 23.976 fps
Color space                              : YUV
Chroma subsampling                       : 4:2:0
Bit depth                                : 8 bits
Scan type                                : Progressive
Bits/(Pixel*Frame)                       : 0.219
Stream size                              : 2.80 GiB (83%)
Writing library                          : x264 core 125 r2208 d9d2288
Encoding settings                        : cabac=1 / ref=8 / deblock=1:-3:-3 / analyse=0x3:0x133 / me=umh / subme=11 / psy=1 / psy_rd=1.00:0.00 / mixed_ref=1 / me_range=32 / chroma_me=1 / trellis=2 / 8x8dct=1 / cqm=0 / deadzone=21,11 / fast_pskip=0 / chroma_qp_offset=-2 / threads=12 / lookahead_threads=2 / sliced_threads=0 / nr=0 / decimate=1 / interlaced=0 / bluray_compat=0 / constrained_intra=0 / bframes=8 / b_pyramid=2 / b_adapt=2 / b_bias=0 / direct=1 / weightb=1 / open_gop=0 / weightp=2 / keyint=250 / keyint_min=23 / scenecut=40 / intra_refresh=0 / rc=crf / mbtree=0 / crf=18.0 / qcomp=0.60 / qpmin=0 / qpmax=69 / qpstep=4 / ip_ratio=1.10 / pb_ratio=1.10 / aq=1:1.00
Language                                 : English
Default                                  : Yes
Forced                                   : No
Audio
ID                                       : 2
Format                                   : AC-3
Format/Info                              : Audio Coding 3
Mode extension                           : CM (complete main)
Format settings, Endianness              : Big
Codec ID                                 : A_AC3
Duration                                 : 1h 51mn
Bit rate mode                            : Constant
Bit rate                                 : 640 Kbps
Channel count                            : 6 channels
Channel positions                        : Front: L C R, Side: L R, LFE
Sampling rate                            : 48.0 KHz
Bit depth                                : 16 bits
Compression mode                         : Lossy
Stream size                              : 512 MiB (15%)
Language                                 : Russian
Default                                  : Yes
Forced                                   : Yes
Text #1
ID                                       : 3
Format                                   : UTF-8
Codec ID                                 : S_TEXT/UTF8
Codec ID/Info                            : UTF-8 Plain Text
Title                                    : Forced
Language                                 : Russian
Default                                  : Yes
Forced                                   : Yes
Text #2
ID                                       : 4
Format                                   : UTF-8
Codec ID                                 : S_TEXT/UTF8
Codec ID/Info                            : UTF-8 Plain Text
Title                                    : Full
Language                                 : Russian
Default                                  : No
Forced                                   : No
Text #3
ID                                       : 5
Format                                   : UTF-8
Codec ID                                 : S_TEXT/UTF8
Codec ID/Info                            : UTF-8 Plain Text
Title                                    : Full
Language                                 : English
Default                                  : No
Forced                                   : No
Menu
00:00:00.000                             : en:Chapter 01
00:06:21.798                             : en:Chapter 02
00:13:09.371                             : en:Chapter 03
00:19:57.362                             : en:Chapter 04
00:26:32.173                             : en:Chapter 05
00:31:30.096                             : en:Chapter 06
00:36:47.246                             : en:Chapter 07
00:43:49.251                             : en:Chapter 08
00:51:46.394                             : en:Chapter 09
00:58:58.409                             : en:Chapter 10
01:07:30.588                             : en:Chapter 11
01:16:28.250                             : en:Chapter 12
01:23:02.602                             : en:Chapter 13
01:29:51.677                             : en:Chapter 14
01:35:25.469                             : en:Chapter 15
01:41:57.194                             : en:Chapter 16

Скриншоты

[Торрент-статистика]
[Профиль]  [ЛС] 

ArtZak ®

Пол:

Стаж: 9 лет 5 месяцев

Сообщений: 2829

Репутация: 1366 [+] [-]

Откуда: Россия

Пост 17-Окт-2014 18:52 (спустя 9 дней)

[Цитировать] 

Релиз заменен на лицензионный BDRip 720p.
[Торрент-статистика]
[Профиль]  [ЛС] 
Показать сообщения:    
Ответить на тему

Текущее время: Сегодня 11:27

Часовой пояс: GMT + 4



Вы не можете начинать темы
Вы не можете отвечать на сообщения
Вы не можете редактировать свои сообщения
Вы не можете удалять свои сообщения
Вы не можете голосовать в опросах
Вы не можете прикреплять файлы к сообщениям
Вы не можете скачивать файлы