Отель «Гранд Будапешт» / The Grand Budapest Hotel (Уэс Андерсон / Wes Anderson) [2014 г., Комедия, Детектив, Приключения, Криминал, BDRip 1080p] DUB

Ответить на тему
 
Автор
Сообщение

awk05 ®

Пол:

Стаж: 8 лет 10 месяцев

Сообщений: 1334

Репутация: 278 [+] [-]

Откуда: Западная Украина Ривне

Пост 05-Авг-2014 17:22

[Цитировать] 

--Отель «Гранд Будапешт» / The Grand Budapest Hotel -- Год выпуска: 2014
Производство: Великобритания, Германия
Жанр: Комедия, Детектив, Приключения, Криминал
Продолжительность: 01:39:54
Перевод: Дублированный (Лицензия)
Субтитры: Вшитые отключаемые
Язык субтитров: Английский (Forced, Full, SDH, SDH-Colored)--Режиссер: Уэс Андерсон / Wes Anderson --
Актеры: Рэйф Файнс (M. Gustave), Тони Револори (Zero), Сирша Ронан (Agatha), Эдриан Броуди (Dmitri), Уиллем Дефо (Jopling), Ф. Мюррэй Абрахам (Mr. Moustafa), Джуд Лоу (Young Writer), Эдвард Нортон (Henckels), Джефф Голдблюм (Deputy Kovacs), Харви Кейтель (Ludwig), Том Уилкинсон (Author), Матье Амальрик (Serge X.), и др.--Описание фильма: Фильм рассказывает об увлекательных приключениях легендарного консьержа Густава и его юного друга, портье Зеро Мустафы. Сотрудники гостиницы становятся свидетелями кражи и поисков бесценных картин эпохи Возрождения, борьбы за огромное состояние богатой семьи и… драматических изменений в Европе между двумя кровопролитными войнами XX века.--Качество видео: BDRip 1080p
Формат видео: MKV
Видео кодек: AVC (High@L4.1)
Аудио кодек: DTS
Видео: AVC, 1920 x 1036 (1,85:1), 23.976 fps, 9 843 Kbps (0.206 bit/pixel)
Аудио 1: DTS , 48.0 KHz, 6 ch, 768 Kbps, CBR, 24 бит [Русский]
Аудио 2: DTS , 48.0 KHz, 6 ch, 1510 Kbps, CBR, 24 бит [Английский] -- --

Знаете ли Вы, что...

• В качестве декорации отеля «Гранд Будапешт» Уэс Андерсон использовал старый и выполненный в стиле ар-деко универмаг Karstadt, расположенный в Саксонии, в городке Герлиц, что на границе Германии, Чехии и Польши.
• Джефф Голдблюм играет Ковача. Ранее в фильме «Эрни Ковач: Кроме шуток» (1984) он исполнял роль комика Эрни Ковача.
• На главную роль первоначально был утвержден Джонни Депп, но позже он выбыл из проекта.
• Имя персонажа Билла Мюррея можно прочитать по-венгерски как «Mi Van?», что означает «Что происходит?».
• Тильду Суинтон гримировали по несколько часов, чтобы она приняла образ 84-летней вдовы.
• Анджела Лэнсбери могла сыграть роль в этом фильме, но отказалась из-за несогласованности рабочих графиков, и ее роль отошла Тильде Суинтон.
• Заснеженные горы на фоне в сцене свадьбы — это так называемая Саксонская Швейцария, германская часть Эльбских Песчаниковых гор.
• В сцене когда Агата в спальне разговаривает с Зеро, бретелька ее ночной рубашки в одном кадре спадает с плеча, а в следующем уже на плече.

Кадры из фильма

Тех. данные (MI)

Код:
Уникальный идентификатор                 : 172871438206000409424427240257573914561 (0x820DD3F3AE424A4EA7D4F50045B087C1)
Полное имя                               : G:\The.grand.budapest.hotel.2014.D.BDRip.1080p.NNM-CLUB.mkv
Формат                                   : Matroska
Версия формата                           : Version 2
Размер файла                             : 8,46 Гбайт
Продолжительность                        : 1 ч. 39 м.
Общий поток                              : 12,1 Мбит/сек
Название фильма                          : The.Grand.Budapest.Hotel.2014.BluRay.1080p.DTS.x264-CHD
Дата кодирования                         : UTC 2014-06-06 14:16:13
Программа кодирования                    : mkvmerge v2.9.9 ('Tutu') built on Nov 25 2009 21:13:32
Библиотека кодирования                   : libebml v0.7.9 + libmatroska v0.8.1
Видео
Идентификатор                            : 1
Формат                                   : AVC
Формат/Информация                        : Advanced Video Codec
Профиль формата                          : High@L4.1
Параметр CABAC формата                   : Да
Параметр ReFrames формата                : 4 кадра
Идентификатор кодека                     : V_MPEG4/ISO/AVC
Продолжительность                        : 1 ч. 39 м.
Битрейт                                  : 9843 Кбит/сек
Ширина                                   : 1920 пикселей
Высота                                   : 1036 пикселей
Соотношение сторон                       : 1,85:1
Режим частоты кадров                     : Постоянный
Частота кадров                           : 23,976 кадра/сек
Цветовое пространство                    : YUV
Субдискретизация насыщенности            : 4:2:0
Битовая глубина                          : 8 бит
Тип развёртки                            : Прогрессивная
Бит/(Пиксели*Кадры)                      : 0.206
Размер потока                            : 6,70 Гбайт (79%)
Заголовок                                : -=Release for NNM-CLUB.RU=-
Библиотека кодирования                   : x264 core 138 r2356 a1d3d17
Настройки программы                      : cabac=1 / ref=4 / deblock=1:-3:-3 / analyse=0x3:0x113 / me=umh / subme=10 / psy=1 / psy_rd=1.00:0.05 / mixed_ref=1 / me_range=32 / chroma_me=1 / trellis=2 / 8x8dct=1 / cqm=0 / deadzone=21,11 / fast_pskip=0 / chroma_qp_offset=-2 / threads=18 / lookahead_threads=1 / sliced_threads=0 / nr=0 / decimate=1 / interlaced=0 / bluray_compat=0 / constrained_intra=0 / bframes=5 / b_pyramid=2 / b_adapt=2 / b_bias=0 / direct=3 / weightb=1 / open_gop=0 / weightp=2 / keyint=250 / keyint_min=23 / scenecut=40 / intra_refresh=0 / rc=2pass / mbtree=0 / bitrate=9843 / ratetol=1.0 / qcomp=0.70 / qpmin=0 / qpmax=69 / qpstep=4 / cplxblur=20.0 / qblur=0.5 / ip_ratio=1.40 / pb_ratio=1.30 / aq=2:0.90
Язык                                     : English
Default                                  : Нет
Forced                                   : Нет
Аудио #1
Идентификатор                            : 2
Формат                                   : DTS
Формат/Информация                        : Digital Theater Systems
Режим                                    : 16
Параметр Endianness формата              : Big
Идентификатор кодека                     : A_DTS
Продолжительность                        : 1 ч. 39 м.
Вид битрейта                             : Постоянный
Битрейт                                  : 768 Кбит/сек
Каналы                                   : 6 каналов
Расположение каналов                     : Front: L C R, Side: L R, LFE
Частота                                  : 48,0 КГц
Битовая глубина                          : 24 бит
Метод сжатия                             : С потерями
Размер потока                            : 549 Мбайт (6%)
Заголовок                                : DTS.768.Kbps (6ch) Russian
Язык                                     : Russian
Default                                  : Да
Forced                                   : Нет
Аудио #2
Идентификатор                            : 3
Формат                                   : DTS
Формат/Информация                        : Digital Theater Systems
Режим                                    : 16
Параметр Endianness формата              : Big
Идентификатор кодека                     : A_DTS
Продолжительность                        : 1 ч. 39 м.
Вид битрейта                             : Постоянный
Битрейт                                  : 1509 Кбит/сек
Каналы                                   : 6 каналов
Расположение каналов                     : Front: L C R, Side: L R, LFE
Частота                                  : 48,0 КГц
Битовая глубина                          : 24 бит
Метод сжатия                             : С потерями
Задержка видео                           : 11 мс.
Размер потока                            : 1,05 Гбайт (12%)
Заголовок                                : DTS.1509.Kbps (6ch) English
Язык                                     : English
Default                                  : Нет
Forced                                   : Нет
Текст #1
Идентификатор                            : 4
Формат                                   : UTF-8
Идентификатор кодека                     : S_TEXT/UTF8
Идентификатор кодека/Информация          : UTF-8 Plain Text
Заголовок                                : English (Forced)
Язык                                     : English
Default                                  : Нет
Forced                                   : Нет
Текст #2
Идентификатор                            : 5
Формат                                   : UTF-8
Идентификатор кодека                     : S_TEXT/UTF8
Идентификатор кодека/Информация          : UTF-8 Plain Text
Заголовок                                : English (Full)
Язык                                     : English
Default                                  : Нет
Forced                                   : Нет
Текст #3
Идентификатор                            : 6
Формат                                   : UTF-8
Идентификатор кодека                     : S_TEXT/UTF8
Идентификатор кодека/Информация          : UTF-8 Plain Text
Заголовок                                : English (SDH)
Язык                                     : English
Default                                  : Нет
Forced                                   : Нет
Текст #4
Идентификатор                            : 7
Формат                                   : UTF-8
Идентификатор кодека                     : S_TEXT/UTF8
Идентификатор кодека/Информация          : UTF-8 Plain Text
Заголовок                                : English (SDH-Colored)
Язык                                     : English
Default                                  : Нет
Forced                                   : Нет
Меню
00:00:00.000                             : en:00:00:00.000
00:02:55.884                             : en:00:02:55.884
00:06:00.151                             : en:00:06:00.151
00:08:28.133                             : en:00:08:28.133
00:11:32.609                             : en:00:11:32.609
00:14:17.190                             : en:00:14:17.190
00:17:39.600                             : en:00:17:39.600
00:19:56.237                             : en:00:19:56.237
00:23:08.804                             : en:00:23:08.804
00:25:35.409                             : en:00:25:35.409
00:29:30.310                             : en:00:29:30.310
00:32:11.763                             : en:00:32:11.763
00:34:16.262                             : en:00:34:16.262
00:35:51.649                             : en:00:35:51.649
00:38:58.044                             : en:00:38:58.044
00:40:18.833                             : en:00:40:18.833
00:41:43.793                             : en:00:41:43.793
00:45:22.761                             : en:00:45:22.761
00:48:22.649                             : en:00:48:22.649
00:51:53.026                             : en:00:51:53.026
00:55:18.273                             : en:00:55:18.273
00:59:08.545                             : en:00:59:08.545
01:04:17.020                             : en:01:04:17.020
01:08:34.986                             : en:01:08:34.986
01:12:20.461                             : en:01:12:20.461
01:16:18.907                             : en:01:16:18.907
01:17:41.490                             : en:01:17:41.490
01:20:47.801                             : en:01:20:47.801
01:24:02.370                             : en:01:24:02.370
01:27:08.556                             : en:01:27:08.556
01:30:55.908                             : en:01:30:55.908
01:32:57.363                             : en:01:32:57.363

_________________
[Торрент-статистика]
[Профиль]  [ЛС] 
Показать сообщения:    
Ответить на тему

Текущее время: Сегодня 02:42

Часовой пояс: GMT + 4



Вы не можете начинать темы
Вы не можете отвечать на сообщения
Вы не можете редактировать свои сообщения
Вы не можете удалять свои сообщения
Вы не можете голосовать в опросах
Вы не можете прикреплять файлы к сообщениям
Вы не можете скачивать файлы