Советник / The Counselor (Ридли Скотт / Ridley Scott) [2013 г., триллер, драма, криминал, BDRip 720p Extended Cut] [Лицензия] + Original (ENG) + Subs (RUS)

Ответить на тему
 
Автор
Сообщение

TiZAr ®

Пол:

Стаж: 7 лет 7 месяцев

Сообщений: 815

Репутация: 1160 [+] [-]

Откуда: Россия

Пост 05-Фев-2014 02:35

[Цитировать] 

Советник / The Counselor
«Соблазн велик»
- Год выпуска: 2013
Страна: США, Великобритания
Жанр: триллер, драма, криминал
Продолжительность: 01:57:22
Перевод: Профессиональный (полное дублирование)
Качество перевода: Лицензия
Cубтитры: Русские
Оригинальная аудиодорожка: английская
Оглавление: есть
Режиссер: Ридли Скотт / Ridley Scott
Производство: Chockstone Pictures, Kanzaman S.A., Scott Free Productions, Translux- -В ролях:
Майкл Фассбендер, Пенелопа Крус, Кэмерон Диаз, Хавьер Бардем, Брэд Питт, Бруно Ганц, Рози Перес, Тоби Кеббелл, Эмма Ригби, Эдгар Рамирез и др.
Описание:
Успешный адвокат, стоящий практически на вершине успеха и на пороге собственной свадьбы, из любопытства и, конечно, ради денег соглашается на предложение своего давнего знакомого, имеющего тесные связи с преступным миром, перевезти из Мексики в США партию кокаина стоимостью 20 млн. долл.
Доп. инфо: Расширенные места, переведены субтитрами.

Тип релиза: BDRip 720p | Сэмпл
Контейнер: MKV
Видео: AVC, 1280x534 (2.35:1), 23.976 fps, 3 636 Kbps (0.222 bit/pixel)
Аудио #1: AC-3, 48.0 KHz, 6 ch, 448 Kbps, CBR (Russian)
Аудио #2: AC-3, 48.0 KHz, 6 ch, 448 Kbps, CBR (English)

MI

Код:
General
Unique ID                                : 175688375160866360897596880198221783905 (0x842C59AAA8CB91878DC55FFEB4DD6361)
Complete name                            : E:\downloads\The.Counselor.EXT.2013.BD.720.Hot-Film.mkv
Format                                   : Matroska
Format version                           : Version 2
File size                                : 4.37 GiB
Duration                                 : 2h 17mn
Overall bit rate                         : 4 532 Kbps
Encoded date                             : UTC 2014-02-03 01:54:02
Writing application                      : mkvmerge v5.8.0 ('No Sleep / Pillow') built on Sep  2 2012 15:37:04
Writing library                          : libebml v1.2.3 + libmatroska v1.3.0
Video
ID                                       : 1
Format                                   : AVC
Format/Info                              : Advanced Video Codec
Format profile                           : High@L4.1
Format settings, CABAC                   : Yes
Format settings, ReFrames                : 11 frames
Codec ID                                 : V_MPEG4/ISO/AVC
Duration                                 : 2h 17mn
Bit rate                                 : 3 636 Kbps
Width                                    : 1 280 pixels
Height                                   : 534 pixels
Display aspect ratio                     : 2.40:1
Frame rate mode                          : Constant
Frame rate                               : 23.976 fps
Color space                              : YUV
Chroma subsampling                       : 4:2:0
Bit depth                                : 8 bits
Scan type                                : Progressive
Bits/(Pixel*Frame)                       : 0.222
Stream size                              : 3.42 GiB (78%)
Writing library                          : x264 core 138 r2358 9e941d1
Encoding settings                        : cabac=1 / ref=11 / deblock=1:-3:-3 / analyse=0x3:0x113 / me=umh / subme=11 / psy=1 / psy_rd=1.05:0.10 / mixed_ref=1 / me_range=32 / chroma_me=1 / trellis=2 / 8x8dct=1 / cqm=0 / deadzone=21,11 / fast_pskip=0 / chroma_qp_offset=-3 / threads=2 / lookahead_threads=1 / sliced_threads=0 / nr=0 / decimate=0 / interlaced=0 / bluray_compat=0 / constrained_intra=0 / bframes=8 / b_pyramid=2 / b_adapt=2 / b_bias=0 / direct=3 / weightb=1 / open_gop=0 / weightp=2 / keyint=240 / keyint_min=23 / scenecut=40 / intra_refresh=0 / rc_lookahead=40 / rc=2pass / mbtree=0 / bitrate=3636 / ratetol=1.0 / qcomp=0.60 / qpmin=0 / qpmax=69 / qpstep=4 / cplxblur=20.0 / qblur=0.5 / vbv_maxrate=50000 / vbv_bufsize=62500 / nal_hrd=none / ip_ratio=1.40 / pb_ratio=1.30 / aq=1:1.00
Language                                 : English
Default                                  : Yes
Forced                                   : No
Audio #1
ID                                       : 2
Format                                   : AC-3
Format/Info                              : Audio Coding 3
Mode extension                           : CM (complete main)
Format settings, Endianness              : Big
Codec ID                                 : A_AC3
Duration                                 : 2h 17mn
Bit rate mode                            : Constant
Bit rate                                 : 448 Kbps
Channel count                            : 6 channels
Channel positions                        : Front: L C R, Side: L R, LFE
Sampling rate                            : 48.0 KHz
Bit depth                                : 16 bits
Compression mode                         : Lossy
Stream size                              : 442 MiB (10%)
Language                                 : Russian
Default                                  : Yes
Forced                                   : No
Audio #2
ID                                       : 3
Format                                   : AC-3
Format/Info                              : Audio Coding 3
Mode extension                           : CM (complete main)
Format settings, Endianness              : Big
Codec ID                                 : A_AC3
Duration                                 : 2h 17mn
Bit rate mode                            : Constant
Bit rate                                 : 448 Kbps
Channel count                            : 6 channels
Channel positions                        : Front: L C R, Side: L R, LFE
Sampling rate                            : 48.0 KHz
Bit depth                                : 16 bits
Compression mode                         : Lossy
Stream size                              : 442 MiB (10%)
Language                                 : English
Default                                  : No
Forced                                   : No
Text #1
ID                                       : 4
Format                                   : UTF-8
Codec ID                                 : S_TEXT/UTF8
Codec ID/Info                            : UTF-8 Plain Text
Title                                    : FORCE
Language                                 : Russian
Default                                  : Yes
Forced                                   : Yes
Text #2
ID                                       : 5
Format                                   : UTF-8
Codec ID                                 : S_TEXT/UTF8
Codec ID/Info                            : UTF-8 Plain Text
Title                                    : FULL
Language                                 : Russian
Default                                  : No
Forced                                   : No
Menu
00:00:00.000                             : :Chapter 01
00:06:38.022                             : :Chapter 02
00:09:47.086                             : :Chapter 03
00:12:12.565                             : :Chapter 04
00:19:50.606                             : :Chapter 05
00:27:59.677                             : :Chapter 06
00:31:31.973                             : :Chapter 07
00:34:35.239                             : :Chapter 08
00:37:13.856                             : :Chapter 09
00:46:31.830                             : :Chapter 10
00:50:45.876                             : :Chapter 11
00:56:54.494                             : :Chapter 12
00:58:13.448                             : :Chapter 13
00:59:55.258                             : :Chapter 14
01:02:37.628                             : :Chapter 15
01:04:40.710                             : :Chapter 16
01:10:51.371                             : :Chapter 17
01:15:33.487                             : :Chapter 18
01:17:44.034                             : :Chapter 19
01:19:53.705                             : :Chapter 20
01:25:41.302                             : :Chapter 21
01:30:10.112                             : :Chapter 22
01:34:25.784                             : :Chapter 23
01:38:29.778                             : :Chapter 24
01:41:34.838                             : :Chapter 25
01:44:25.842                             : :Chapter 26
01:46:19.372                             : :Chapter 27
01:48:58.364                             : :Chapter 28
01:51:45.907                             : :Chapter 29
01:58:04.452                             : :Chapter 30
01:59:36.252                             : :Chapter 31
02:03:57.137                             : :Chapter 32
02:05:26.310                             : :Chapter 33
02:08:22.778                             : :Chapter 34
02:10:27.944                             : :Chapter 35
02:13:53.650                             : :Chapter 36

Скриншоты



_________________
Не стоит обращать внимания на отсутствие сидов на моих раздачах. Все мои релизы мультитрекерные - нет сидов, включите DHT.
За релизами в HD качестве обращайтесь в личку, либо отписывайтесь в теме.
[Торрент-статистика]
[Профиль]  [ЛС] 
Показать сообщения:    
Ответить на тему

Текущее время: Сегодня 04:42

Часовой пояс: GMT + 4



Вы не можете начинать темы
Вы не можете отвечать на сообщения
Вы не можете редактировать свои сообщения
Вы не можете удалять свои сообщения
Вы не можете голосовать в опросах
Вы не можете прикреплять файлы к сообщениям
Вы не можете скачивать файлы