Афера по-американски / American Hustle (Дэвид О. Расселл / David O. Russell) [2013 г., драма, комедия, BDRip 720p] MVO ["Paradox"] + Original (ENG) + Sub (ENG)

Ответить на тему
 
Автор
Сообщение

TiZAr ®

Пол:

Стаж: 7 лет 7 месяцев

Сообщений: 815

Репутация: 1160 [+] [-]

Откуда: Россия

Пост 01-Мар-2014 20:20

[Цитировать] 

Афера по-американски / American Hustle
«Everyone Hustles To Survive»
- Год выпуска: 2013
Страна: США / Annapurna Pictures, Atlas Entertainment
Жанр: драма, комедия
Продолжительность: 02:13:09
Перевод: Любительский (многоголосый, закадровый) - "Paradox"
Cубтитры: английские
Оригинальная аудиодорожка: английская
Навигация по главам: Есть
Режиссер: Дэвид О. Расселл / David O. Russell- -В ролях:
Кристиан Бэйл, Брэдли Купер, Эми Адамс, Джереми Реннер, Дженнифер Лоуренс, Луис С.К., Джек Хьюстон, Майкл Пенья, Ши Уигхэм, Алессандро Нивола, Элизабет Рём, Пол Херман, Саид Тагмауи, Мэттью Расселл, Энтони Зерби, Коллин Кэмп, Армен Гаро, Адриан Мартинес, Томас Мэтьюз и др.
Описание:
В основе сюжета фильма реальная спецоперация, проводимая в конце 70-х — начале 80-х ФБР под кодовым названием Abscam. Она изначально была нацелена на расследование торговли краденым товаром. ФБР собиралось внедрить в преступную среду своих агентов под видом посредников, скупающих краденые шедевры для богатых коллекционеров Ближнего Востока. Впоследствии операция превратилась в изобличение коррупции на разных уровнях.
Качество: BDRip 720p
Формат: MKV
Видео: AVC, 1280x534 (2.35:1), 23.976 fps
Аудио #1: AC-3, 44.1 KHz, 2 ch (Russian)
Аудио #2: DTS, 48.0 KHz, 6 ch, 1 510 Kbps, CBR (English)

MI

Код:
General
Unique ID                                : 191194926539568972750573033267305539813 (0x8FD6CDAD2DBFCA6FBBC6CFA754B268E5)
Complete name                            : E:\downloads\American.Hustle.2013.720p.DTS.x264.mkv
Format                                   : Matroska
Format version                           : Version 2
File size                                : 7.66 GiB
Duration                                 : 2h 18mn
Overall bit rate                         : 7 945 Kbps
Movie name                               : American.Hustle.2013.BDRip.720p.lg777
Encoded date                             : UTC 2014-02-28 04:38:45
Writing application                      : mkvmerge v5.2.1 ('A Far Off Place') built on Feb  6 2012 10:08:15
Writing library                          : libebml v1.2.3 + libmatroska v1.3.0
Video
ID                                       : 1
Format                                   : AVC
Format/Info                              : Advanced Video Codec
Format profile                           : High@L4.1
Format settings, CABAC                   : Yes
Format settings, ReFrames                : 5 frames
Muxing mode                              : Header stripping
Codec ID                                 : V_MPEG4/ISO/AVC
Duration                                 : 2h 18mn
Bit rate                                 : 6 022 Kbps
Width                                    : 1 280 pixels
Height                                   : 534 pixels
Display aspect ratio                     : 2.40:1
Frame rate mode                          : Constant
Frame rate                               : 23.976 fps
Color space                              : YUV
Chroma subsampling                       : 4:2:0
Bit depth                                : 8 bits
Scan type                                : Progressive
Bits/(Pixel*Frame)                       : 0.367
Stream size                              : 5.81 GiB (76%)
Title                                    : American.Hustle.2013
Language                                 : English
Default                                  : Yes
Forced                                   : No
Audio #1
ID                                       : 2
Format                                   : AC-3
Format/Info                              : Audio Coding 3
Mode extension                           : CM (complete main)
Format settings, Endianness              : Big
Muxing mode                              : Header stripping
Codec ID                                 : A_AC3
Duration                                 : 2h 18mn
Bit rate mode                            : Constant
Bit rate                                 : 256 Kbps
Channel count                            : 2 channels
Channel positions                        : Front: L R
Sampling rate                            : 44.1 KHz
Bit depth                                : 16 bits
Compression mode                         : Lossy
Stream size                              : 253 MiB (3%)
Title                                    : American.Hustle.2013.ParadoX
Language                                 : Russian
Default                                  : No
Forced                                   : No
Audio #2
ID                                       : 3
Format                                   : DTS
Format/Info                              : Digital Theater Systems
Mode                                     : 16
Format settings, Endianness              : Big
Muxing mode                              : Header stripping
Codec ID                                 : A_DTS
Duration                                 : 2h 18mn
Bit rate mode                            : Constant
Bit rate                                 : 1 509 Kbps
Channel count                            : 6 channels
Channel positions                        : Front: L C R, Side: L R, LFE
Sampling rate                            : 48.0 KHz
Bit depth                                : 24 bits
Compression mode                         : Lossy
Stream size                              : 1.46 GiB (19%)
Title                                    : American.Hustle.2013.DTS
Language                                 : English
Default                                  : Yes
Forced                                   : No
Text #1
ID                                       : 4
Format                                   : UTF-8
Codec ID                                 : S_TEXT/UTF8
Codec ID/Info                            : UTF-8 Plain Text
Title                                    : English.SDH
Language                                 : English
Default                                  : Yes
Forced                                   : No
Text #2
ID                                       : 5
Format                                   : UTF-8
Codec ID                                 : S_TEXT/UTF8
Codec ID/Info                            : UTF-8 Plain Text
Title                                    : English
Language                                 : English
Default                                  : No
Forced                                   : No
Text #3
ID                                       : 6
Format                                   : PGS
Muxing mode                              : zlib
Codec ID                                 : S_HDMV/PGS
Codec ID/Info                            : The same subtitle format used on BDs/HD-DVDs
Title                                    : English.Forced
Language                                 : English
Default                                  : No
Forced                                   : No
Menu
00:00:00.000                             : en:00:00:00.000
00:07:12.641                             : en:00:07:12.641
00:14:11.142                             : en:00:14:11.142
00:24:08.822                             : en:00:24:08.822
00:31:28.970                             : en:00:31:28.970
00:39:16.104                             : en:00:39:16.104
00:48:40.334                             : en:00:48:40.334
00:57:01.001                             : en:00:57:01.001
01:06:18.600                             : en:01:06:18.600
01:15:30.943                             : en:01:15:30.943
01:24:12.756                             : en:01:24:12.756
01:33:09.793                             : en:01:33:09.793
01:41:35.089                             : en:01:41:35.089
01:51:45.824                             : en:01:51:45.824
02:00:25.301                             : en:02:00:25.301
02:09:50.992                             : en:02:09:50.992

Скриншоты


_________________
Не стоит обращать внимания на отсутствие сидов на моих раздачах. Все мои релизы мультитрекерные - нет сидов, включите DHT.
За релизами в HD качестве обращайтесь в личку, либо отписывайтесь в теме.
[Торрент-статистика]
[Профиль]  [ЛС] 
Показать сообщения:    
Ответить на тему

Текущее время: Сегодня 07:58

Часовой пояс: GMT + 4



Вы не можете начинать темы
Вы не можете отвечать на сообщения
Вы не можете редактировать свои сообщения
Вы не можете удалять свои сообщения
Вы не можете голосовать в опросах
Вы не можете прикреплять файлы к сообщениям
Вы не можете скачивать файлы