Новый Человек-паук​: Высокое напряжение / The Amazing Spider-Man 2: Rise of Electro (Марк Уэбб / Marc Webb) [2014 г., фэнтези, боевик, приключения, WEB-DL 720p] [iTunes]

Ответить на тему
 
Автор
Сообщение

ArtZak ®

Пол:

Стаж: 9 лет 5 месяцев

Сообщений: 2829

Репутация: 1366 [+] [-]

Откуда: Россия

Пост 03-Авг-2014 01:56

[Цитировать] 

Новый Человек-паук: Высокое напряжение / The Amazing Spider-Man 2: Rise of Electro
«No more secrets»
- Год выпуска: 2014
Страна: США / Marvel Enterprises, Avi Arad Productions, Columbia Pictures
Жанр: фэнтези, боевик, приключения
Продолжительность: 02:21:40
Перевод: Дублированный [iTunes]
Субтитры: Russian (Forced, iTunes), Russian (iTunes), English (iTunes)
Оригинальная аудиодорожка: английская
Навигация по главам: Есть
Режиссер: Марк Уэбб / Marc Webb- -В ролях:
Эндрю Гарфилд (Spider-Man / Peter Parker), Эмма Стоун (Gwen Stacy), Джейми Фокс (Electro / Max Dillon), Дэйн ДеХаан (Green Goblin / Harry Osborn), Салли Филд (Aunt May), Колм Фиор (Felicia), Пол Джаматти (Aleksei Sytsevich), Мартон Чокаш (Dr. Ashley Kafka), Кэмпбелл Скотт (Richard Parker), Эмбет Дэвидц (Mary Parker), Крис Купер (Norman Osborn), Дэнис Лири (Captain Stacy), Луис Канселми (Man in Black Suit), и др.--Описание фильма:
Питер Паркер под маской Человека-паука по-прежнему спасает мир от злодеев и преступников, а свободное время проводит со своей возлюбленной Гвен, но школьная пора близится к концу, и впереди героев ждет взрослая жизнь. Питер помнит о том, что дал отцу Гвен слово навсегда уйти из жизни девушки, тем самым больше не подвергая ее опасности. Однако сдержать это обещание не так просто. Судьба готовит Питеру сюрпризы: на его пути появится новый противник — Электро, а также ему будет суждено вновь встретиться с давним приятелем Гарри Озборном и узнать много нового о прошлом своей семьи.
Качество: WEB-DL 720p
Формат: MKV
Видео: 1280x532 at 23.976 fps, MPEG-4 AVC, ~4000 kbps avg
Aудио#1: Russian: 48 kHz, AC3, 3/2 (L,C,R,l,r) + LFE ch, ~384.00 kbps avg
Aудио#2: Ukrainian: 44.1 kHz, AAC, 2/0 (L,R) ch, ~160.00 kbps avg
Aудио#3: English: 48 kHz, AC3, 3/2 (L,C,R,l,r) + LFE ch, ~384.00 kbps avg

MI

Код:
General
Unique ID                                : 194394684316403497234496717112526189170 (0x923F0DEA3D671635A811499B0F033272)
Complete name                            : D:\downloads\The.Amazing.Spider-Man.2.2014.720p.WEB-DL.Rus.Ukr.Eng.HDCLUB.mkv
Format                                   : Matroska
Format version                           : Version 2
File size                                : 4.93 GiB
Duration                                 : 2h 21mn
Overall bit rate                         : 4 985 Kbps
Movie name                               : The Amazing Spider-Man 2 (2014) - Release for HDCLUB
Encoded date                             : UTC 2014-07-31 19:47:53
Writing application                      : mkvmerge v3.4.0 ('Rapunzel') built on May 15 2010 09:38:20
Writing library                          : libebml v0.8.0 + libmatroska v0.9.0
Video
ID                                       : 1
Format                                   : AVC
Format/Info                              : Advanced Video Codec
Format profile                           : Main@L3.1
Format settings, CABAC                   : No
Format settings, ReFrames                : 2 frames
Codec ID                                 : V_MPEG4/ISO/AVC
Duration                                 : 2h 21mn
Width                                    : 1 280 pixels
Height                                   : 532 pixels
Display aspect ratio                     : 2.40:1
Frame rate mode                          : Constant
Frame rate                               : 23.976 fps
Color space                              : YUV
Chroma subsampling                       : 4:2:0
Bit depth                                : 8 bits
Scan type                                : Progressive
Title                                    : The Amazing Spider-Man 2 (2014) - Release for HDCLUB
Language                                 : English
Default                                  : Yes
Forced                                   : No
Color primaries                          : BT.709
Transfer characteristics                 : BT.709
Matrix coefficients                      : BT.709
Audio #1
ID                                       : 2
Format                                   : AC-3
Format/Info                              : Audio Coding 3
Mode extension                           : CM (complete main)
Format settings, Endianness              : Big
Codec ID                                 : A_AC3
Duration                                 : 2h 21mn
Bit rate mode                            : Constant
Bit rate                                 : 384 Kbps
Channel(s)                               : 6 channels
Channel positions                        : Front: L C R, Side: L R, LFE
Sampling rate                            : 48.0 KHz
Bit depth                                : 16 bits
Compression mode                         : Lossy
Stream size                              : 389 MiB (8%)
Title                                    : AC3 5.1 @ 384 kbps - DUB, iTunes
Language                                 : Russian
Default                                  : Yes
Forced                                   : No
Audio #2
ID                                       : 3
Format                                   : AAC
Format/Info                              : Advanced Audio Codec
Format profile                           : HE-AAC / LC
Codec ID                                 : A_AAC
Duration                                 : 2h 21mn
Channel(s)                               : 2 channels
Channel positions                        : Front: L R
Sampling rate                            : 88.2 KHz / 44.1 KHz
Compression mode                         : Lossy
Title                                    : AAC 2.0 @ 160 kbps - DUB, iTunes
Language                                 : Ukrainian
Default                                  : No
Forced                                   : No
Audio #3
ID                                       : 4
Format                                   : AC-3
Format/Info                              : Audio Coding 3
Mode extension                           : CM (complete main)
Format settings, Endianness              : Big
Codec ID                                 : A_AC3
Duration                                 : 2h 21mn
Bit rate mode                            : Constant
Bit rate                                 : 384 Kbps
Channel(s)                               : 6 channels
Channel positions                        : Front: L C R, Side: L R, LFE
Sampling rate                            : 48.0 KHz
Bit depth                                : 16 bits
Compression mode                         : Lossy
Stream size                              : 389 MiB (8%)
Title                                    : AC3 5.1 @ 384 kbps
Language                                 : English
Default                                  : No
Forced                                   : No
Text #1
ID                                       : 5
Format                                   : UTF-8
Codec ID                                 : S_TEXT/UTF8
Codec ID/Info                            : UTF-8 Plain Text
Title                                    : Forced
Language                                 : Russian
Default                                  : Yes
Forced                                   : No
Text #2
ID                                       : 6
Format                                   : UTF-8
Codec ID                                 : S_TEXT/UTF8
Codec ID/Info                            : UTF-8 Plain Text
Language                                 : Russian
Default                                  : No
Forced                                   : No
Text #3
ID                                       : 7
Format                                   : UTF-8
Codec ID                                 : S_TEXT/UTF8
Codec ID/Info                            : UTF-8 Plain Text
Language                                 : English
Default                                  : No
Forced                                   : No
Menu
00:00:00.000                             : en:1
00:07:07.000                             : en:2
00:17:06.000                             : en:3
00:22:21.000                             : en:4
00:33:13.000                             : en:5
00:45:13.000                             : en:6
00:50:55.000                             : en:7
00:59:48.000                             : en:8
01:12:45.000                             : en:9
01:22:51.000                             : en:10
01:31:47.000                             : en:11
01:38:33.000                             : en:12
01:44:19.000                             : en:13
01:49:21.000                             : en:14
01:56:15.000                             : en:15
02:03:09.000                             : en:16

Скриншоты

[Торрент-статистика]
[Профиль]  [ЛС] 
Показать сообщения:    
Ответить на тему

Текущее время: Сегодня 04:07

Часовой пояс: GMT + 4



Вы не можете начинать темы
Вы не можете отвечать на сообщения
Вы не можете редактировать свои сообщения
Вы не можете удалять свои сообщения
Вы не можете голосовать в опросах
Вы не можете прикреплять файлы к сообщениям
Вы не можете скачивать файлы