Новый Человек-паук: Высокое напряжение / The Amazing Spider-Man 2 (Марк Уэбб / Marc Webb) [2014 г., фэнтези, боевик, приключения, WEB-DL 720p] DUB

Ответить на тему
 
Автор
Сообщение

awk05 ®

Пол:

Стаж: 4 года 5 месяцев

Сообщений: 1352

Репутация: 275 [+] [-]

Откуда: Западная Украина Ривне

Пост 27-Июл-2014 02:17

[Цитировать] 

--Новый Человек-паук: Высокое напряжение
The Amazing Spider-2

«No more secrets»
-- Год выпуска: 2014
Страна: США / Marvel Enterprises, Avi Arad Productions, Columbia Pictures
Жанр: фэнтези, боевик, приключения
Продолжительность: 02:21:40
Перевод: Дублированный [iTunes]
Субтитры: Английские--Режиссер: Марк Уэбб / Marc Webb --
В ролях: Эндрю Гарфилд (Spider-Man / Peter Parker), Эмма Стоун (Gwen Stacy), Джейми Фокс (Electro / Max Dillon), Дэйн ДеХаан (Green Goblin / Harry Osborn), Салли Филд (Aunt May), Колм Фиор (Felicia), Пол Джаматти (Aleksei Sytsevich), Мартон Чокаш (Dr. Ashley Kafka), Кэмпбелл Скотт (Richard Parker), Эмбет Дэвидц (Mary Parker), Крис Купер (Norman Osborn), Дэнис Лири (Captain Stacy), Луис Канселми (Man in Black Suit), и др.--Описание фильма: Питер Паркер под маской Человека-паука по-прежнему спасает мир от злодеев и преступников, а свободное время проводит со своей возлюбленной Гвен, но школьная пора близится к концу, и впереди героев ждет взрослая жизнь. Питер помнит о том, что дал отцу Гвен слово навсегда уйти из жизни девушки, тем самым больше не подвергая ее опасности. Однако сдержать это обещание не так просто. Судьба готовит Питеру сюрпризы: на его пути появится новый противник — Электро, а также ему будет суждено вновь встретиться с давним приятелем Гарри Озборном и узнать много нового о прошлом своей семьи.--Качество видео: WEB-DL 720p
Формат видео: MKV
Видео кодек: AVC (Main@L3.1)
Аудио кодек: AC-3
Видео: AVC, 1280x532 (2.40:1), 23.976 fps, 3 993 Kbps (0.245 bit/pixel)
Аудио 1: AC-3, 48.0 KHz, 6 ch, 384 Kbps, CBR, 16 бит [RUS]
Аудио 2: AC-3, 48.0 KHz, 6 ch, 384 Kbps, CBR, 16 бит [ENG] -- --

Знаете ли Вы, что...

* Специально для этого фильма костюм Человека-паука изменили и придали ему вид максимально схожий с костюмом, в котором он впервые появился на страницах комиксов.
* Шейлин Вудли была выбрана на роль Мэри Джейн Уотсон, но в июне, когда она уже три дня снималась, было объявлено, что Мэри Джейн была вырезана из сюжета и появится лишь в третьей части, чтобы сосредоточиться на отношениях Питера Паркера и Гвен Стейси. Также стало известно, что роль могут отдать другой актрисе.
* В августе 2011 года, за 11 месяцев до выхода фильма «Новый Человек-паук» (2012), студия Sony объявила дату выхода сиквела.
* 28 сентября 2012 года было подтверждено, что Эндрю Гарфилд будет исполнять роль Человека-паука. Одновременно с этим Марк Уэбб был утвержден на место режиссера сиквела.
* 1 ноября 2012 года стало известно, что с Джейми Фоксом ведутся переговоры по поводу роли главного злодея. Позже подтвердилась информация, что противником Человека-паука станет Электро. А 3 декабря 2012 года Джейми Фокс официально получил эту роль.
* Дэйн ДеХаан, Олден Эйренрайк, Брэйди Корбет, Эдди Редмэйн, Сэм Клафлин, Дуглас Бут и Бойд Холбрук рассматривались на роль Гарри Осборна. 3 декабря 2012 года эту роль получил Дэйн ДеХаан.
* Джейми Фокс настоял на том, чтобы Электро не носил классический костюм из комиксов, а вместо этого его внешний вид будет основан на Ultimate-версии комиксов.
* Крис Купер ранее снимался в фильме «Фаворит» (2003), в котором вместе с ним играли Тоби Магуайр и Элизабет Бэнкс, снимавшиеся в предыдущей серии фильмов о Человеке-пауке.
* Режиссер Марк Уэбб решил снимать фильм на пленку 35 мм вместо цифровых камер Red Epic, на которые был снят первый фильм.
* Сара Гадон, Джейн Леви и Кристен Стюарт рассматривались на роль Мэри Джейн, но в итоге от этого персонажа решили отказаться.
* Съемки автомобильной погони проходили в Рочестере, Нью-Йорк. В Рочестере также расположен главный офис компании Kodak, и именно на пленку Kodak был снят фильм.
* Крис Купер (который играет Нормана Осборна в этом втором фильме обновленной франшизы о Человеке-пауке) рассматривался на роль доктора Октавиуса в фильме «Человек-паук 2» (2004).
* Колм Фиор хотел сыграть злодея по имени Стервятник, однако в итоге актер получил роль представителя Oscorp — Дональда.
* Чтобы снять бой на Таймс-сквер, декораторы соорудили в натуральную величину точную копию северной части самой известной площади Нью-Йорка.
* В здании корпорации Оскорп есть застекленные секции: одна с металлическими крыльями и другая с экзоскелетом с четырьмя щупальцами. Это намек на антагонистов Человека-паука — Стервятника (Адриан Тумс) и доктора Осьминога (Отто Октавиус).
* Ближе к концу фильма Гвен Стейси носит пальто цвета мяты и фиолетовую юбку, такую же одежду она носит в комиксе «The Night Gwen Stacy Died» (Ночь, когда Гвен Стейси умерла).
Ошибки в фильме
* Внимание! Список ошибок в фильме может содержать спойлеры. Будьте осторожны.
После смерти Гвен Стэйси, Питер Паркер посещает кладбище во все времена года. Но в следующем кадре, где участвует Тетя Мэй и разочарованный Питер Паркер, выясняется, что прошло всего пол года, после того как человек паук перестал «работать». Очевидно, что он перестал «работать» после смерти Гвен. Поэтому пол года никак не могли превратится в 4 времени года даже с самым ужасным климатом в Нью-Йорке.

Кадры из фильма

Тех. данные (MI)

Код:
Общее
Уникальный идентификатор                 : 207857821637524495556668356457868679979 (0x9C5FF5D559117B71B1D33B0D5F29DB2B)
Полное имя                               : E:\тест\Novyj.4elovek.Pauk.2.2014.D.WEBDL720p.mkv
Формат                                   : Matroska
Версия формата                           : Version 4 / Version 2
Размер файла                             : 4,80 Гбайт
Продолжительность                        : 2 ч. 21 м.
Общий поток                              : 4858 Кбит/сек
Дата кодирования                         : UTC 2014-07-31 18:50:11
Программа кодирования                    : mkvmerge v6.5.0 ('Isn't she lovely') built on Oct 20 2013 12:50:05
Библиотека кодирования                   : libebml v1.3.0 + libmatroska v1.4.1
Видео
Идентификатор                            : 1
Формат                                   : AVC
Формат/Информация                        : Advanced Video Codec
Профиль формата                          : Main@L3.1
Параметр CABAC формата                   : Нет
Параметр ReFrames формата                : 2 кадра
Идентификатор кодека                     : V_MPEG4/ISO/AVC
Продолжительность                        : 2 ч. 21 м.
Битрейт                                  : 3993 Кбит/сек
Ширина                                   : 1280 пикселей
Высота                                   : 532 пикселя
Соотношение сторон                       : 2,40:1
Режим частоты кадров                     : Постоянный
Частота кадров                           : 23,976 кадра/сек
Цветовое пространство                    : YUV
Субдискретизация насыщенности            : 4:2:0
Битовая глубина                          : 8 бит
Тип развёртки                            : Прогрессивная
Бит/(Пиксели*Кадры)                      : 0.245
Размер потока                            : 3,95 Гбайт (82%)
Язык                                     : English
Default                                  : Да
Forced                                   : Нет
Основные цвета                           : BT.709
Характеристики трансфера                 : BT.709
Коэффициенты матрицы                     : BT.709
Аудио #1
Идентификатор                            : 2
Формат                                   : AC-3
Формат/Информация                        : Audio Coding 3
Расширение режима                        : CM (complete main)
Параметр Endianness формата              : Big
Идентификатор кодека                     : A_AC3
Продолжительность                        : 2 ч. 21 м.
Вид битрейта                             : Постоянный
Битрейт                                  : 384 Кбит/сек
Каналы                                   : 6 каналов
Расположение каналов                     : Front: L C R, Side: L R, LFE
Частота                                  : 48,0 КГц
Битовая глубина                          : 16 бит
Метод сжатия                             : С потерями
Размер потока                            : 389 Мбайт (8%)
Язык                                     : Russian
Default                                  : Да
Forced                                   : Нет
Аудио #2
Идентификатор                            : 3
Формат                                   : AC-3
Формат/Информация                        : Audio Coding 3
Расширение режима                        : CM (complete main)
Параметр Endianness формата              : Big
Идентификатор кодека                     : A_AC3
Продолжительность                        : 2 ч. 21 м.
Вид битрейта                             : Постоянный
Битрейт                                  : 384 Кбит/сек
Каналы                                   : 6 каналов
Расположение каналов                     : Front: L C R, Side: L R, LFE
Частота                                  : 48,0 КГц
Битовая глубина                          : 16 бит
Метод сжатия                             : С потерями
Размер потока                            : 389 Мбайт (8%)
Язык                                     : English
Default                                  : Нет
Forced                                   : Нет
Меню
00:00:00.000                             : en:1
00:07:07.000                             : en:2
00:17:06.000                             : en:3
00:22:21.000                             : en:4
00:33:13.000                             : en:5
00:45:13.000                             : en:6
00:50:55.000                             : en:7
00:59:48.000                             : en:8
01:12:45.000                             : en:9
01:22:51.000                             : en:10
01:31:47.000                             : en:11
01:38:33.000                             : en:12
01:44:19.000                             : en:13
01:49:21.000                             : en:14
01:56:15.000                             : en:15
02:03:09.000                             : en:16

_________________
[Торрент-статистика]
[Профиль]  [ЛС] 
Показать сообщения:    
Ответить на тему

Текущее время: Сегодня 15:34

Часовой пояс: GMT + 4



Вы не можете начинать темы
Вы не можете отвечать на сообщения
Вы не можете редактировать свои сообщения
Вы не можете удалять свои сообщения
Вы не можете голосовать в опросах
Вы не можете прикреплять файлы к сообщениям
Вы не можете скачивать файлы