Капитан Филлипс / Captain Phillips (Пол Гринграсс / Paul Greengrass) [2013 г., боевик, триллер, драма, криминал, приключения, биография, BDRip 720p] DVO + Original (ENG)

Ответить на тему
 
Автор
Сообщение

TiZAr ®

Пол:

Стаж: 3 года 3 месяца

Сообщений: 836

Репутация: 1157 [+] [-]

Откуда: Россия

Пост 14-Янв-2014 13:43

[Цитировать] 

Капитан Филлипс / Captain Phillips
«Выжить любой ценой»
- Год выпуска: 2013
Страна: США
Жанр: боевик, триллер, драма, криминал, приключения, биография
Продолжительность: 02:14:03
Перевод: Профессиональное (двухголосое)
Cубтитры: нет
Оригинальная аудиодорожка: английский
Оглавление: есть
Режиссер: Пол Гринграсс / Paul Greengrass
Производство: Michael De Luca Productions, Scott Rudin Productions, Translux, Trigger Street Productions- -В ролях:
Том Хэнкс, Баркхад Абди, Баркхад Абдирахман, Файсал Ахмед, Махат М. Али, Майкл Чернус, Кэтрин Кинер, Дэвид Уоршофски, Кори Джонсон, Крис Малки и др.
Описание:
В начале апреля 2009 года, близ берегов Африки, несколько сомалийских пиратов атакуют и пытаются захватить массивный контейнеровоз MV Maersk Alabama. Команда корабля активно сопротивляется и в конце концов не даёт взять себя в плен. Захватчики вынуждены ретироваться и покинуть судно на небольшом катере, прихватив с собой немолодого капитана Ричарда Филлипса…
Релиз на DVD и Blu-Ray - 11 марта 2014, «Columbia/Sony»

Качество: BDRip 720p | Сэмпл
Формат: MKV
Видео: AVC, 1280x534 (2.35:1), 23.976 fps, 3 767 Kbps (0.230 bit/pixel)
Аудио #1: AC-3, 48.0 KHz, 6 ch, 384 Kbps, CBR (Russian)
Аудио #2: AC-3, 48.0 KHz, 6 ch, 448 Kbps, CBR (English)

MI

Код:
General
Unique ID                                : 223755892640116838469563512485981585999 (0xA855D140441157DEBA310A0D2F62024F)
Complete name                            : E:\downloads\Captain.Phillips.2013.BD.720.Hot-Film.mkv
Format                                   : Matroska
Format version                           : Version 2
File size                                : 4.31 GiB
Duration                                 : 2h 14mn
Overall bit rate                         : 4 599 Kbps
Encoded date                             : UTC 2014-01-11 16:45:50
Writing application                      : mkvmerge v5.8.0 ('No Sleep / Pillow') built on Sep  2 2012 15:37:04
Writing library                          : libebml v1.2.3 + libmatroska v1.3.0
Video
ID                                       : 1
Format                                   : AVC
Format/Info                              : Advanced Video Codec
Format profile                           : High@L4.1
Format settings, CABAC                   : Yes
Format settings, ReFrames                : 9 frames
Codec ID                                 : V_MPEG4/ISO/AVC
Duration                                 : 2h 14mn
Bit rate                                 : 3 767 Kbps
Width                                    : 1 280 pixels
Height                                   : 534 pixels
Display aspect ratio                     : 2.40:1
Frame rate mode                          : Constant
Frame rate                               : 23.976 fps
Color space                              : YUV
Chroma subsampling                       : 4:2:0
Bit depth                                : 8 bits
Scan type                                : Progressive
Bits/(Pixel*Frame)                       : 0.230
Stream size                              : 3.44 GiB (80%)
Writing library                          : x264 core 138 r2358 9e941d1
Encoding settings                        : cabac=1 / ref=9 / deblock=1:-3:-3 / analyse=0x3:0x113 / me=umh / subme=11 / psy=1 / psy_rd=1.05:0.10 / mixed_ref=1 / me_range=32 / chroma_me=1 / trellis=2 / 8x8dct=1 / cqm=0 / deadzone=21,11 / fast_pskip=0 / chroma_qp_offset=-3 / threads=2 / lookahead_threads=1 / sliced_threads=0 / nr=0 / decimate=0 / interlaced=0 / bluray_compat=0 / constrained_intra=0 / bframes=8 / b_pyramid=2 / b_adapt=2 / b_bias=0 / direct=3 / weightb=1 / open_gop=0 / weightp=2 / keyint=240 / keyint_min=23 / scenecut=40 / intra_refresh=0 / rc_lookahead=40 / rc=2pass / mbtree=0 / bitrate=3767 / ratetol=1.0 / qcomp=0.60 / qpmin=0 / qpmax=69 / qpstep=4 / cplxblur=20.0 / qblur=0.5 / vbv_maxrate=50000 / vbv_bufsize=62500 / nal_hrd=none / ip_ratio=1.40 / pb_ratio=1.30 / aq=1:1.00
Language                                 : English
Default                                  : Yes
Forced                                   : No
Audio #1
ID                                       : 2
Format                                   : AC-3
Format/Info                              : Audio Coding 3
Mode extension                           : CM (complete main)
Format settings, Endianness              : Big
Codec ID                                 : A_AC3
Duration                                 : 2h 14mn
Bit rate mode                            : Constant
Bit rate                                 : 384 Kbps
Channel count                            : 6 channels
Channel positions                        : Front: L C R, Side: L R, LFE
Sampling rate                            : 48.0 KHz
Bit depth                                : 16 bits
Compression mode                         : Lossy
Stream size                              : 368 MiB (8%)
Language                                 : Russian
Default                                  : Yes
Forced                                   : No
Audio #2
ID                                       : 3
Format                                   : AC-3
Format/Info                              : Audio Coding 3
Mode extension                           : CM (complete main)
Format settings, Endianness              : Big
Codec ID                                 : A_AC3
Duration                                 : 2h 14mn
Bit rate mode                            : Constant
Bit rate                                 : 448 Kbps
Channel count                            : 6 channels
Channel positions                        : Front: L C R, Side: L R, LFE
Sampling rate                            : 48.0 KHz
Bit depth                                : 16 bits
Compression mode                         : Lossy
Stream size                              : 430 MiB (10%)
Language                                 : English
Default                                  : No
Forced                                   : No
Menu
00:00:00.000                             : :Chapter 01
00:09:12.927                             : :Chapter 02
00:15:30.138                             : :Chapter 03
00:22:48.742                             : :Chapter 04
00:30:11.435                             : :Chapter 05
00:39:38.876                             : :Chapter 06
00:48:01.003                             : :Chapter 07
00:58:24.751                             : :Chapter 08
01:04:36.539                             : :Chapter 09
01:13:02.837                             : :Chapter 10
01:19:14.249                             : :Chapter 11
01:25:41.261                             : :Chapter 12
01:34:14.023                             : :Chapter 13
01:41:44.598                             : :Chapter 14
01:51:32.102                             : :Chapter 15
02:02:38.851                             : :Chapter 16

Скриншоты

Киноляпы

  • После того как на сомалийской лодке ломается двигатель, на фоне виден американский корабль. Это судно должно плыть, но не видно никакого волнового следа.
  • Когда капитана Филлипса везут на автомобиле на корабль в порт Салала, Оман, руль автомобиля находится справа. В Омане леворульные машины. Эта ошибка возникла из-за того, что сцену снимали на Мальте, бывшей британской колонии.
  • Действие фильма разворачивается в апреле 2009 года. Когда «Морские котики» прибывают на базу в черных внедорожниках, на наклейке техосмотра на лобовом стекле можно заметить дату — 5/13 (май 2013-го года).
  • По дороге в аэропорт прическа миссис Филлипс меняется несколько раз. У нее то появляются, то исчезают завитые локоны у левого уха.
  • Когда капитан Филлипс выходит на палубу в начале путешествия, очевидно, что корабль в этот момент стоит, хотя должен плыть.

_________________
Не стоит обращать внимания на отсутствие сидов на моих раздачах. Все мои релизы мультитрекерные - нет сидов, включите DHT.
За релизами в HD качестве обращайтесь в личку, либо отписывайтесь в теме.
[Торрент-статистика]
[Профиль]  [ЛС] 
Показать сообщения:    
Ответить на тему

Текущее время: Сегодня 12:08

Часовой пояс: GMT + 4



Вы не можете начинать темы
Вы не можете отвечать на сообщения
Вы не можете редактировать свои сообщения
Вы не можете удалять свои сообщения
Вы не можете голосовать в опросах
Вы не можете прикреплять файлы к сообщениям
Вы не можете скачивать файлы