Форсаж 6 / Fast & Furious 6 (Джастин Лин) [2013 г., боевик, триллер, драма, криминал, BDRip 720р] DUB | Extended Cut. [Лицензия]

Ответить на тему
 
Автор
Сообщение

kaliasa ®

Пол:

Стаж: 9 лет

Сообщений: 112

Репутация: 87 [+] [-]

Пост 13-Сен-2013 16:20

[Цитировать] 

-Форсаж 6 / Fast & Furious 6 | Extended Cut Год выпуска: 2013
Страна: США
Студия: Universal Pictures
Жанр: боевик, триллер, драма, криминал
Продолжительность: 02:11:02
Перевод: Профессиональный (полное дублирование) [Лицензия]
Cубтитры: Русские, Английские-Режиссер: Джастин Лин-В ролях: Вин Дизель, Пол Уокер, Дуэйн Джонсон, Мишель Родригес, Люк Эванс, Тайриз Гибсон, Лудакрис, Санг Кенг, Галь Гадот, Джордана Брюстер-Описание: После того как Доминик и Брайн побывали в Рио, где они ограбили и свергли империю вора в законе, их команда получила 100 миллионов, и наши герои оказались разбросаны по всему миру. Но их привычка вечно жить в бегах не даёт им покоя. Между тем, Хоббс отслеживал организацию смертельно опасных наёмников-водителей по двенадцати странам. Единственный способ остановить эту криминальную группу - это превзойти их на улицах, поэтому Хоббс просит Доминика собрать его элитную команду в Лондоне. За это он обещает полное помилование для Доминика и его друзей, чтобы они смогли наконец вернуться домой к своей семье.- -Качество: BDRip 720p [Blu-Ray Remux]
Формат: MKV
Видео: AVC, 1280x544 (2.35:1) at 23.976 fps, AVC at 4356 kbps avg, 0.261 bit/pixel
Аудио: Русский AC3 / 6ch / 448 kbps | Дубляж [Лицензия]
Субтитры: Русские, Английские
Дополнительно: Сохранены оригинальные чаптеры как на Blu-Ray-

Скриншоты


Mi

Код:
General
Unique ID : 184617598654387739382959761944821937904 (0x8AE40E5FE85D77D3959CEB4B6024B6F0)
Complete name : F:Furious.6.2013.BD.720.Hot-Film.mkv
Format : Matroska
Format version : Version 2
File size : 4.37 GiB
Duration : 2h 10mn
Overall bit rate : 4 806 Kbps
Encoded date : UTC 2013-09-14 12:34:12
Writing application : mkvmerge v5.8.0 ('No Sleep / Pillow') built on Sep 2 2012 15:37:04
Writing library : libebml v1.2.3 + libmatroska v1.3.0
Video
ID : 1
Format : AVC
Format/Info : Advanced Video Codec
Format profile : High@L4.1
Format settings, CABAC : Yes
Format settings, ReFrames : 10 frames
Codec ID : V_MPEG4/ISO/AVC
Duration : 2h 10mn
Bit rate : 4 356 Kbps
Width : 1 280 pixels
Height : 544 pixels
Display aspect ratio : 2.35:1
Frame rate mode : Constant
Frame rate : 23.976 fps
Color space : YUV
Chroma subsampling : 4:2:0
Bit depth : 8 bits
Scan type : Progressive
Bits/(Pixel*Frame) : 0.261
Stream size : 3.87 GiB (89%)
Writing library : x264 core 133 r2334 a3ac64b
Encoding settings : cabac=1 / ref=10 / deblock=1:-3:-3 / analyse=0x3:0x113 / me=umh / subme=10 / psy=1 / psy_rd=1.01:0.10 / mixed_ref=1 / me_range=32 / chroma_me=1 / trellis=2 / 8x8dct=1 / cqm=0 / deadzone=21,11 / fast_pskip=0 / chroma_qp_offset=-3 / threads=2 / lookahead_threads=1 / sliced_threads=0 / nr=0 / decimate=0 / interlaced=0 / bluray_compat=0 / constrained_intra=0 / bframes=9 / b_pyramid=2 / b_adapt=2 / b_bias=0 / direct=3 / weightb=1 / open_gop=0 / weightp=2 / keyint=240 / keyint_min=23 / scenecut=40 / intra_refresh=0 / rc_lookahead=40 / rc=2pass / mbtree=0 / bitrate=4356 / ratetol=1.0 / qcomp=0.60 / qpmin=0 / qpmax=69 / qpstep=4 / cplxblur=20.0 / qblur=0.5 / vbv_maxrate=50000 / vbv_bufsize=62500 / nal_hrd=none / ip_ratio=1.40 / pb_ratio=1.30 / aq=1:0.80
Language : English
Default : Yes
Forced : No
Audio
ID : 2
Format : AC-3
Format/Info : Audio Coding 3
Mode extension : CM (complete main)
Format settings, Endianness : Big
Codec ID : A_AC3
Duration : 2h 10mn
Bit rate mode : Constant
Bit rate : 448 Kbps
Channel(s) : 6 channels
Channel positions : Front: L C R, Side: L R, LFE
Sampling rate : 48.0 KHz
Bit depth : 16 bits
Compression mode : Lossy
Stream size : 417 MiB (9%)
Title : Дубляж
Language : Russian
Default : Yes
Forced : No
Text #1
ID : 3
Format : UTF-8
Codec ID : S_TEXT/UTF8
Codec ID/Info : UTF-8 Plain Text
Title : Force
Language : Russian
Default : Yes
Forced : Yes
Text #2
ID : 4
Format : UTF-8
Codec ID : S_TEXT/UTF8
Codec ID/Info : UTF-8 Plain Text
Title : Russian
Language : Russian
Default : No
Forced : No
Text #3
ID : 5
Format : UTF-8
Codec ID : S_TEXT/UTF8
Codec ID/Info : UTF-8 Plain Text
Title : Original
Language : English
Default : No
Forced : No
Menu
00:00:00.000 : :Chapter 01
00:04:21.010 : :Chapter 02
00:10:19.118 : :Chapter 03
00:15:35.267 : :Chapter 04
00:19:18.574 : :Chapter 05
00:24:32.721 : :Chapter 06
00:30:23.404 : :Chapter 07
00:36:28.477 : :Chapter 08
00:43:43.954 : :Chapter 09
00:50:21.810 : :Chapter 10
00:56:24.964 : :Chapter 11
01:04:07.843 : :Chapter 12
01:09:28.080 : :Chapter 13
01:18:27.244 : :Chapter 14
01:24:54.964 : :Chapter 15
01:34:07.475 : :Chapter 16
01:41:02.347 : :Chapter 17
01:47:42.706 : :Chapter 18
01:56:52.880 : :Chapter 19
02:01:38.958 : :Chapter 20
- -


Последний раз редактировалось: kaliasa (2013-09-15 11:33), всего редактировалось 2 раз(а)
[Торрент-статистика]
[Профиль]  [ЛС] 

nova1980

Пол:

Стаж: 9 лет 4 месяца

Сообщений: 790

Репутация: 532 [+] [-]

Откуда: Одесса Мама

Пост 15-Сен-2013 01:06 (спустя 1 день 8 часов)

[Цитировать] 

интересные факты: >

• Несколько машин для фильма были созданы в расположенном в Калифорнии автоателье Lucra Cars.
• Деннис МакКарти (Dennis McCarthy), ответственный за автомобили, используемые в фильме, сказал, что для съёмок одной сцены они использовали «целый флот из BMW M5s». МакКарти также сказал: «Затем мы разбили практически все эти машины во время съемок других сцен».
• Автомобиль Dodge Daytona, на котором ездит Вин Дизель, был сделан на заказ. Машина была переделана МакКарти и его командой из старого авто, которое они первоначально купили за 5000 долларов.
• Джейсон Стэйтем и Дэвид Теннант рассматривались на роль злодея, которая в итоге отошла Люку Эвансу.
• В сцене перед отделением Интерпола, кода преступники уезжают, Жезель берет оружие и начинает выбегать на середину улицы, справа видно, что там стоят пожарный гидрант и рядом ещё ящик для газет. Потом кадр переключается наверх, откуда на нее смотрит снайпер, и там четко видно, что она стоит почти на средине дороги и пожарного гидранта и ящика для газет уже нету, в следующий момент на Жезель набрасывается Хан, спасая её от пуль снайпера, и там «чудом» появляется пожарный гидрант и ящик для газет, за ними Жезель и Хан укрывается от стрельбы снайпера.
• Хоббс говорит, что у BMW M5 — двигатель V8. У нынешнего варианта F10 — он действительно такой, но у старого E60, который показывают в фильме, обычный безнаддувный V10.
• Независимо от того, где герои находятся в Лондоне, они всегда проезжают мимо одного и того же двухэтажного автобуса N 4.
• Перед сценой на базе НАТО Люк разговаривает по телефону и видно, что он побрит. В следующей сцене у него снова французская бородка.
• В автомате с едой, в который Хоббс стреляет в сцене в Лондоне, находятся шоколадки, встречающиеся только в подобных автоматах в США, а не в Великобритании.
• В сцене, где Вин Дизель гонится за самолётом, он не переключил передачу — он просто дотронулся до коробки автомата.

_________________
Мои Раздачи
[Торрент-статистика]
[Профиль]  [ЛС] 

kaliasa ®

Пол:

Стаж: 9 лет

Сообщений: 112

Репутация: 87 [+] [-]

Пост 15-Сен-2013 11:34 (спустя 10 часов)

[Цитировать] 

Внимание!!!
Торент обновлен, выложил лицензию
[Торрент-статистика]
[Профиль]  [ЛС] 
Показать сообщения:    
Ответить на тему

Текущее время: Сегодня 10:48

Часовой пояс: GMT + 4



Вы не можете начинать темы
Вы не можете отвечать на сообщения
Вы не можете редактировать свои сообщения
Вы не можете удалять свои сообщения
Вы не можете голосовать в опросах
Вы не можете прикреплять файлы к сообщениям
Вы не можете скачивать файлы