Форсаж 7 / Furious 7 (Джеймс Ван) [2015 г., боевик, триллер, криминал, HDTV 1080p] [Чистый звук]

Ответить на тему
 
Автор
Сообщение

TiZAr ®

Пол:

Стаж: 7 лет 7 месяцев

Сообщений: 815

Репутация: 1160 [+] [-]

Откуда: Россия

Пост 13-Май-2015 01:45

[Цитировать] 

Форсаж 7 / Furious 7
Год выпуска: 2015
Страна: США / Universal Pictures, Dentsu, Fast 7 Productions
Жанр: боевик, триллер, криминал
Продолжительность: 02:17:13
Перевод: Профессиональный (полное дублирование) [Чистый звук]
Режиссер: Джеймс Ван
В ролях: Вин Дизель, Пол Уокер, Джейсон Стэйтем, Мишель Родригес, Дуэйн Джонсон, Тайриз Гибсон, Лудакрис, Натали Эммануэль, Джордана Брюстер, Курт Рассел
Описание: Они покорили Токио и Рио, Лос-Анджелес и Лондон. Но мир больше не играет по их правилам. Зной арабских пустынь, неприлично высокие небоскребы, миллионы долларов на колесах и очень, очень знаменитый злодей. Скорость не знает границ.
Доп. информация: Присутствуют вшитые не отключаемые корейские субтитры.
Сэмпл: http://multi-up.com/1048265

Тип релиза: HDTV 1080p
Контейнер: MKV
Видео кодек: AVC
Видео: MPEG-4 AVC, 5340 kbps, 1920x800
Аудио »1: 48 kHz, AC3 Dolby Digital, 2/0 (L,R) ch, ~128 kbps (Русский) / Дубляж, Официальный
Аудио »2: 48 kHz, AC3 Dolby Digital, 2/0 (L,R) ch, ~224 kbps (Русский) / Авторский
Аудио »3: 48 kHz, AC3 Dolby Digital, 2/0 (L,R) ch, ~224 kbps (Английский) / Оригинал

MI

Общее
Уникальный идентификатор : 209486711329042152477007946524571667805 (0x9D99AC4BB15C5EB48D02B973D49F0D5D)
Полное имя : D:РелизыФорсаж.7.2015.HDTV.[1080p].NNM-CLUB.mkv
Формат : Matroska
Версия формата : Version 2
Размер файла : 5,79 Гбайт
Продолжительность : 2 ч. 17 м.
Общий поток : 6036 Кбит/сек
Название фильма : Форсаж.7.2015.HDTV.[1080p].NNM-CLUB
Дата кодирования : UTC 2015-05-12 20:10:08
Программа кодирования : mkvmerge v4.9.1 ('Ich will') сборка от Jul 11 2011 23:53:15
Библиотека кодирования : libebml v1.2.1 + libmatroska v1.1.1
Attachements : cover.jpg
Видео
Идентификатор : 1
Формат : AVC
Формат/Информация : Advanced Video Codec
Профиль формата : High@L4.1
Параметр CABAC формата : Да
Параметр ReFrames формата : 4 кадра
Идентификатор кодека : V_MPEG4/ISO/AVC
Продолжительность : 2 ч. 17 м.
Битрейт : 5340 Кбит/сек
Ширина : 1920 пикселей
Высота : 800 пикселей
Соотношение сторон : 2,40:1
Режим частоты кадров : Постоянный
Частота кадров : 29,970 кадров/сек
Цветовое пространство : YUV
Субдискретизация насыщенности : 4:2:0
Битовая глубина : 8 бит
Тип развёртки : Прогрессивная
Бит/(Пиксели*Кадры) : 0.116
Размер потока : 5,12 Гбайт (88%)
Заголовок : nnm-club.me
Библиотека кодирования : x264 core 144 r2525M 40bb568
Настройки программы : cabac=1 / ref=4 / deblock=1:0:0 / analyse=0x3:0x113 / me=umh / subme=7 / psy=1 / psy_rd=1.00:0.15 / mixed_ref=1 / me_range=16 / chroma_me=1 / trellis=1 / 8x8dct=1 / cqm=0 / deadzone=21,11 / fast_pskip=1 / chroma_qp_offset=-3 / threads=40 / lookahead_threads=8 / sliced_threads=0 / nr=0 / decimate=1 / interlaced=0 / bluray_compat=0 / constrained_intra=0 / bframes=3 / b_pyramid=2 / b_adapt=2 / b_bias=0 / direct=3 / weightb=1 / open_gop=0 / weightp=2 / keyint=250 / keyint_min=25 / scenecut=40 / intra_refresh=0 / rc_lookahead=50 / rc=crf / mbtree=1 / crf=18.0 / qcomp=0.60 / qpmin=0 / qpmax=69 / qpstep=4 / ip_ratio=1.40 / aq=1:1.00
Язык : English
Default : Да
Forced : Нет
Аудио #1
Идентификатор : 2
Формат : AC-3
Формат/Информация : Audio Coding 3
Расширение режима : CM (complete main)
Параметр Endianness формата : Big
Идентификатор кодека : A_AC3
Продолжительность : 2 ч. 17 м.
Вид битрейта : Постоянный
Битрейт : 128 Кбит/сек
Каналы : 2 канала
Расположение каналов : Front: L R
Частота : 48,0 КГц
Битовая глубина : 16 бит
Метод сжатия : С потерями
Задержка видео : -46 мс.
Размер потока : 126 Мбайт (2%)
Заголовок : Line
Язык : Russian
Default : Да
Forced : Нет
Аудио #2
Идентификатор : 3
Формат : AC-3
Формат/Информация : Audio Coding 3
Расширение режима : CM (complete main)
Параметр Endianness формата : Big
Идентификатор кодека : A_AC3
Продолжительность : 2 ч. 17 м.
Вид битрейта : Постоянный
Битрейт : 224 Кбит/сек
Каналы : 2 канала
Расположение каналов : Front: L R
Частота : 48,0 КГц
Битовая глубина : 16 бит
Метод сжатия : С потерями
Задержка видео : -46 мс.
Размер потока : 220 Мбайт (4%)
Заголовок : AVO А.Матвеев
Язык : Russian
Default : Нет
Forced : Нет
Аудио #3
Идентификатор : 4
Формат : AC-3
Формат/Информация : Audio Coding 3
Расширение режима : CM (complete main)
Параметр Endianness формата : Big
Идентификатор кодека : A_AC3
Продолжительность : 2 ч. 17 м.
Вид битрейта : Постоянный
Битрейт : 224 Кбит/сек
Каналы : 2 канала
Расположение каналов : Front: L R
Частота : 44,1 КГц
Битовая глубина : 16 бит
Метод сжатия : С потерями
Задержка видео : -46 мс.
Размер потока : 220 Мбайт (4%)
Заголовок : Original
Язык : English
Default : Нет
Forced : Нет

Скриншоты


_________________
Не стоит обращать внимания на отсутствие сидов на моих раздачах. Все мои релизы мультитрекерные - нет сидов, включите DHT.
За релизами в HD качестве обращайтесь в личку, либо отписывайтесь в теме.
[Торрент-статистика]
[Профиль]  [ЛС] 
Показать сообщения:    
Ответить на тему

Текущее время: Сегодня 06:44

Часовой пояс: GMT + 4



Вы не можете начинать темы
Вы не можете отвечать на сообщения
Вы не можете редактировать свои сообщения
Вы не можете удалять свои сообщения
Вы не можете голосовать в опросах
Вы не можете прикреплять файлы к сообщениям
Вы не можете скачивать файлы