Другая женщина / The Other Woman (Ник Кассаветис / Nick Cassavetes)[2014 г., мелодрама, комедия, BDRip 720p] DUB iTunes + Original + Sub

Ответить на тему
 
Автор
Сообщение

awk05 ®

Пол:

Стаж: 4 года 5 месяцев

Сообщений: 1352

Репутация: 275 [+] [-]

Откуда: Западная Украина Ривне

Пост 18-Июл-2014 14:45

[Цитировать] 

--Другая женщина / The Other Woman
«Дружба 'против' - тоже дружба»
-- Год выпуска: 2014 г.
Страна: США
Жанр: мелодрама, комедия
Продолжительность: 01:49:07
Перевод: Профессиональный (полное дублирование)[iTunes]
Субтитры: Англайские (Full, SDH)--Режиссер: Ник Кассаветис / Nick Cassavetes--В ролях: Кэмерон Диаз (Carly Whitten), Лесли Манн (Kate King), Кейт Аптон (Amber), Николай Костер-Вальдау (Mark King), Дон Джонсон (Frank), Тейлор Кинни (Phil), Ники Минаж (Lydia), Дэвид Торнтон (Nick), Виктор Круз (Fernando), Оливия Калпо (Raven-Haired Beauty), Алишия Окс (Cece), Мэдисон МакКинли (Waitress), ...--Описание: Любовная связь с женатым мужчиной — это, конечно, не лучший вариант, но вполне допустимый. Гораздо хуже, если у него помимо тебя ещё несколько любовниц. Будучи не в силах смириться с таким положением дел, обманутая женщина жаждет крови и вынашивает план мести. Ради достижения своей цели она объединяется с женой изменника, и этот союз униженных и оскорблённых оказывается для казановы пострашнее атомной войны.--Качество видео: BDRip 720p
Формат видео: MKV
Видео кодек: AVC (High@L4.1)
Аудио кодек: AC-3
Видео: AVC, 1280x534 (2.40:1), 23.976 fps, 6 600 Kbps (0.403 bit/pixel)
Аудио 1: AC-3, 48.0 KHz, 6 ch, 384 Kbps, CBR, 16 бит [RUS]
Аудио 2: AC-3, 48.0 KHz, 6 ch, 640 Kbps, CBR, 16 бит [ENG] -- --

Знаете ли Вы, что...

* В одной из сцен муж Кэти разговаривает с любовницей по выключенному телефону.

Скриншоты

Тех. данные (MI)

Общее
Уникальный идентификатор : 178159686051658722051484774375246351294 (0x86084EB366D229898560B68992F14BBE)
Полное имя : The Other Woman. (2014) BDRip 720p.mkv
Формат : Matroska
Версия формата : Version 2
Размер файла : 5,81 Гбайт
Продолжительность : 1 ч. 49 м.
Общий поток : 7622 Кбит/сек
Название фильма : The Other Woman. 2014
Дата кодирования : UTC 2014-07-17 21:54:23
Программа кодирования : mkvmerge v5.8.0 ('No Sleep / Pillow') built on Sep 2 2012 15:37:04
Библиотека кодирования : libebml v1.2.3 + libmatroska v1.3.0
Видео
Идентификатор : 1
Формат : AVC
Формат/Информация : Advanced Video Codec
Профиль формата : High@L4.1
Параметр CABAC формата : Да
Параметр ReFrames формата : 12 кадров
Идентификатор кодека : V_MPEG4/ISO/AVC
Продолжительность : 1 ч. 49 м.
Битрейт : 6600 Кбит/сек
Ширина : 1280 пикселей
Высота : 534 пикселя
Соотношение сторон : 2,40:1
Режим частоты кадров : Постоянный
Частота кадров : 23,976 кадра/сек
Цветовое пространство : YUV
Субдискретизация насыщенности : 4:2:0
Битовая глубина : 8 бит
Тип развёртки : Прогрессивная
Бит/(Пиксели*Кадры) : 0.403
Размер потока : 4,91 Гбайт (85%)
Заголовок : HDWing
Библиотека кодирования : x264 core 142 r2431+42 c69a006 tMod [8-bit@4:2:0 X86_64]
Настройки программы : cabac=1 / ref=12 / deblock=1:-3:-3 / analyse=0x3:0x113 / me=umh / subme=11 / psy=1 / fade_compensate=0.00 / psy_rd=1.10:0.05 / mixed_ref=1 / me_range=32 / chroma_me=1 / trellis=2 / 8x8dct=1 / cqm=0 / deadzone=21,11 / fast_pskip=0 / chroma_qp_offset=-3 / threads=18 / lookahead_threads=4 / sliced_threads=0 / nr=0 / decimate=0 / interlaced=0 / bluray_compat=0 / constrained_intra=0 / fgo=0 / bframes=10 / b_pyramid=2 / b_adapt=2 / b_bias=0 / direct=3 / weightb=1 / open_gop=0 / weightp=2 / keyint=240 / keyint_min=24 / scenecut=40 / intra_refresh=0 / rc_lookahead=40 / rc=2pass / mbtree=0 / bitrate=6600 / ratetol=1.0 / qcomp=0.70 / qpmin=0:0:0 / qpmax=69:69:69 / qpstep=4 / cplxblur=20.0 / qblur=0.5 / vbv_maxrate=40000 / vbv_bufsize=30000 / nal_hrd=none / filler=0 / ip_ratio=1.30 / pb_ratio=1.20 / aq=4:0.80 / aq-sensitivity=10.00 / aq-factor=1.00:1.00:1.00 / aq2=0 / aq3=0
Язык : English
Default : Да
Forced : Нет
Аудио #1
Идентификатор : 2
Формат : AC-3
Формат/Информация : Audio Coding 3
Расширение режима : CM (complete main)
Параметр Endianness формата : Big
Идентификатор кодека : A_AC3
Продолжительность : 1 ч. 49 м.
Вид битрейта : Постоянный
Битрейт : 384 Кбит/сек
Каналы : 6 каналов
Расположение каналов : Front: L C R, Side: L R, LFE
Частота : 48,0 КГц
Битовая глубина : 16 бит
Метод сжатия : С потерями
Размер потока : 300 Мбайт (5%)
Заголовок : Dub | iTunes
Язык : Russian
Default : Да
Forced : Нет
Аудио #2
Идентификатор : 3
Формат : AC-3
Формат/Информация : Audio Coding 3
Расширение режима : CM (complete main)
Параметр Endianness формата : Big
Идентификатор кодека : A_AC3
Продолжительность : 1 ч. 49 м.
Вид битрейта : Постоянный
Битрейт : 640 Кбит/сек
Каналы : 6 каналов
Расположение каналов : Front: L C R, Side: L R, LFE
Частота : 48,0 КГц
Битовая глубина : 16 бит
Метод сжатия : С потерями
Размер потока : 500 Мбайт (8%)
Язык : English
Default : Нет
Forced : Нет
Текст #1
Идентификатор : 4
Формат : UTF-8
Идентификатор кодека : S_TEXT/UTF8
Идентификатор кодека/Информация : UTF-8 Plain Text
Заголовок : Full
Язык : English
Default : Нет
Forced : Нет
Текст #2
Идентификатор : 5
Формат : UTF-8
Идентификатор кодека : S_TEXT/UTF8
Идентификатор кодека/Информация : UTF-8 Plain Text
Заголовок : SDH
Язык : English
Default : Нет
Forced : Нет
Меню
00:00:00.000 : en:00:00:00.000
00:03:06.186 : en:00:03:06.186
00:05:45.262 : en:00:05:45.262
00:07:21.274 : en:00:07:21.274
00:10:21.371 : en:00:10:21.371
00:14:17.231 : en:00:14:17.231
00:16:45.421 : en:00:16:45.421
00:19:47.686 : en:00:19:47.686
00:21:18.444 : en:00:21:18.444
00:24:01.649 : en:00:24:01.649
00:28:16.862 : en:00:28:16.862
00:32:34.035 : en:00:32:34.035
00:35:41.181 : en:00:35:41.181
00:39:06.261 : en:00:39:06.261
00:41:54.804 : en:00:41:54.804
00:44:53.316 : en:00:44:53.316
00:48:33.369 : en:00:48:33.369
00:52:33.192 : en:00:52:33.192
00:55:54.977 : en:00:55:54.977
00:58:20.789 : en:00:58:20.789
01:00:20.909 : en:01:00:20.909
01:03:18.712 : en:01:03:18.712
01:08:35.528 : en:01:08:35.528
01:11:03.551 : en:01:11:03.551
01:14:28.923 : en:01:14:28.923
01:17:21.053 : en:01:17:21.053
01:22:13.137 : en:01:22:13.137
01:26:42.030 : en:01:26:42.030
01:30:03.523 : en:01:30:03.523
01:35:01.696 : en:01:35:01.696
01:42:25.431 : en:01:42:25.431
01:44:27.470 : en:01:44:27.470

_________________
[Торрент-статистика]
[Профиль]  [ЛС] 
Показать сообщения:    
Ответить на тему

Текущее время: Сегодня 16:29

Часовой пояс: GMT + 4



Вы не можете начинать темы
Вы не можете отвечать на сообщения
Вы не можете редактировать свои сообщения
Вы не можете удалять свои сообщения
Вы не можете голосовать в опросах
Вы не можете прикреплять файлы к сообщениям
Вы не можете скачивать файлы