Люди Икс: Дни минувшего будущего / X-Men: Days of Future Past (Брайан Сингер / Bryan Singer) [2014 г., фантастика, фэнтези, боевик, приключения, WEB-DLRip 720p] [Чистый звук]

Ответить на тему
 
Автор
Сообщение

ArtZak ®

Пол:

Стаж: 9 лет 5 месяцев

Сообщений: 2829

Репутация: 1366 [+] [-]

Откуда: Россия

Пост 05-Сен-2014 21:00

[Цитировать] 

-Люди Икс: Дни минувшего будущего / X-Men: Days of Future Past
«His past. Our future»
- Страна: США, Великобритания
Жанр: фантастика, фэнтези, боевик, приключения
Год выпуска: 2014
Продолжительность: 02:11:36
Оригинальная аудиодорожка: английская
Навигация по главам: есть
Перевод: Профессиональный (дублированный) [Чистый звук]
Режиссер: Брайан Сингер / Bryan Singer- -В ролях:
Майкл Фассбендер, Джеймс МакЭвой, Хью Джекман, Дженнифер Лоуренс, Иэн МакКеллен, Патрик Стюарт, Николас Холт, Эллен Пейдж, Холли Берри, Питер Динклэйдж и др.
Описание:
В недалёком будущем мутанты близки к истреблению роботами-охотниками на мутантов Стражами. Единственная надежда для мутантов выжить — предотвратить череду роковых событий, приведших к появлению Стражей. С помощью своих способностей, Китти Прайд перемещает сознание Росомахи в его молодое тело в 1973 год. В прошлом всё оказывается не так радужно: молодой Профессор Икс окончательно разочарован в своих идеях, Магнето содержится в тюрьме глубоко под землёй, а человечество не знает как реагировать на широкое появление мутантов…
Качество видео: WEB-DLRip 720p | Сэмпл
Формат видео: MKV
Видео: AVC, 1280x528 (2.40:1), 23.976 fps, 3 700 Kbps (0.228 bit/pixel)
Аудио #1: AC-3, 48.0 KHz, 2 ch, 128 Kbps, CBR (Russian)
Аудио #2: AC-3, 48.0 KHz, 6 ch, 384 Kbps, CBR (English)

MI

Код:
General
Unique ID                                : 245721259767706071856739715451730342249 (0xB8DC31769930BE4996D4CD2B0E013169)
Complete name                            : D:\downloads\X-Men.Days.of.Future.Past.2014.D.WEB-DL.720p.mkv
Format                                   : Matroska
Format version                           : Version 4 / Version 2
File size                                : 3.86 GiB
Duration                                 : 2h 11mn
Overall bit rate                         : 4 201 Kbps
Encoded date                             : UTC 2014-09-05 00:09:04
Writing application                      : mkvmerge v6.1.0 ('Old Devil') built on Mar  4 2013 09:10:42
Writing library                          : libebml v1.3.0 + libmatroska v1.4.0
Video
ID                                       : 1
Format                                   : AVC
Format/Info                              : Advanced Video Codec
Format profile                           : High@L4.1
Format settings, CABAC                   : Yes
Format settings, ReFrames                : 4 frames
Codec ID                                 : V_MPEG4/ISO/AVC
Duration                                 : 2h 11mn
Bit rate                                 : 3 700 Kbps
Width                                    : 1 280 pixels
Height                                   : 528 pixels
Display aspect ratio                     : 2.40:1
Frame rate mode                          : Constant
Frame rate                               : 23.976 fps
Color space                              : YUV
Chroma subsampling                       : 4:2:0
Bit depth                                : 8 bits
Scan type                                : Progressive
Bits/(Pixel*Frame)                       : 0.228
Stream size                              : 3.31 GiB (86%)
Writing library                          : x264 core 130 r2273 b3065e6
Encoding settings                        : cabac=1 / ref=1 / deblock=1:0:0 / analyse=0x3:0x113 / me=hex / subme=2 / psy=1 / psy_rd=1.00:0.00 / mixed_ref=0 / me_range=16 / chroma_me=1 / trellis=0 / 8x8dct=1 / cqm=0 / deadzone=21,11 / fast_pskip=1 / chroma_qp_offset=0 / threads=12 / lookahead_threads=4 / sliced_threads=0 / nr=0 / decimate=1 / interlaced=0 / bluray_compat=0 / constrained_intra=0 / bframes=3 / b_pyramid=2 / b_adapt=1 / b_bias=0 / direct=1 / weightb=1 / open_gop=0 / weightp=1 / keyint=240 / keyint_min=24 / scenecut=40 / intra_refresh=0 / rc_lookahead=10 / rc=abr / mbtree=1 / bitrate=3700 / ratetol=1.0 / qcomp=0.60 / qpmin=0 / qpmax=69 / qpstep=4 / vbv_maxrate=62500 / vbv_bufsize=78125 / nal_hrd=none / ip_ratio=1.40 / aq=1:1.00
Language                                 : English
Default                                  : Yes
Forced                                   : No
Color primaries                          : BT.709
Transfer characteristics                 : BT.709
Matrix coefficients                      : BT.709
Audio #1
ID                                       : 2
Format                                   : AC-3
Format/Info                              : Audio Coding 3
Mode extension                           : CM (complete main)
Format settings, Endianness              : Big
Codec ID                                 : A_AC3
Duration                                 : 2h 11mn
Bit rate mode                            : Constant
Bit rate                                 : 128 Kbps
Channel(s)                               : 2 channels
Channel positions                        : Front: L R
Sampling rate                            : 48.0 KHz
Bit depth                                : 16 bits
Compression mode                         : Lossy
Stream size                              : 120 MiB (3%)
Language                                 : Russian
Default                                  : No
Forced                                   : No
Audio #2
ID                                       : 3
Format                                   : AC-3
Format/Info                              : Audio Coding 3
Mode extension                           : CM (complete main)
Format settings, Endianness              : Big
Codec ID                                 : A_AC3
Duration                                 : 2h 11mn
Bit rate mode                            : Constant
Bit rate                                 : 384 Kbps
Channel(s)                               : 6 channels
Channel positions                        : Front: L C R, Side: L R, LFE
Sampling rate                            : 48.0 KHz
Bit depth                                : 16 bits
Compression mode                         : Lossy
Stream size                              : 361 MiB (9%)
Language                                 : English
Default                                  : No
Forced                                   : No
Menu
00:00:00.000                             : en:Chapter 1
00:03:33.046                             : en:Chapter 2
00:08:00.062                             : en:Chapter 3
00:10:28.044                             : en:Chapter 4
00:13:57.002                             : en:Chapter 5
00:17:01.020                             : en:Chapter 6
00:20:14.046                             : en:Chapter 7
00:22:10.037                             : en:Chapter 8
00:26:36.011                             : en:Chapter 9
00:30:30.036                             : en:Chapter 10
00:34:27.023                             : en:Chapter 11
00:35:58.072                             : en:Chapter 12
00:38:15.042                             : en:Chapter 13
00:40:34.014                             : en:Chapter 14
00:45:51.039                             : en:Chapter 15
00:48:50.052                             : en:Chapter 16
00:51:55.028                             : en:Chapter 17
00:54:39.025                             : en:Chapter 18
00:57:47.005                             : en:Chapter 19
01:00:44.015                             : en:Chapter 20
01:03:22.048                             : en:Chapter 21
01:07:05.021                             : en:Chapter 22
01:09:39.049                             : en:Chapter 23
01:13:07.049                             : en:Chapter 24
01:15:27.022                             : en:Chapter 25
01:17:23.055                             : en:Chapter 26
01:19:25.010                             : en:Chapter 27
01:24:44.996                             : en:Chapter 28
01:26:52.999                             : en:Chapter 29
01:30:57.994                             : en:Chapter 30
01:33:58.049                             : en:Chapter 31
01:37:27.049                             : en:Chapter 32
01:41:48.018                             : en:Chapter 33
01:44:46.029                             : en:Chapter 34
01:47:13.009                             : en:Chapter 35
01:51:23.009                             : en:Chapter 36
01:56:35.029                             : en:Chapter 37
02:00:05.072                             : en:Chapter 38
02:02:27.048                             : en:Chapter 39
02:10:24.024                             : en:Chapter 40

Скриншоты

[Торрент-статистика]
[Профиль]  [ЛС] 
Показать сообщения:    
Ответить на тему

Текущее время: Сегодня 09:38

Часовой пояс: GMT + 4



Вы не можете начинать темы
Вы не можете отвечать на сообщения
Вы не можете редактировать свои сообщения
Вы не можете удалять свои сообщения
Вы не можете голосовать в опросах
Вы не можете прикреплять файлы к сообщениям
Вы не можете скачивать файлы