Грань будущего / Edge of Tomorrow (Даг Лайман / Doug Liman) [2014 г., фантастика, боевик, WEB-DL 720p] [iTunes]

Ответить на тему
 
Автор
Сообщение

ArtZak ®

Пол:

Стаж: 9 лет 5 месяцев

Сообщений: 2829

Репутация: 1366 [+] [-]

Откуда: Россия

Пост 11-Сен-2014 15:30

[Цитировать] 

Грань будущего / Edge of Tomorrow
«Живи. Умри. И снова»
- Год выпуска: 2014
Страна: США, Австралия / Warner Bros., Village Roadshow Pictures, 3 Arts Entertainment
Жанр: фантастика, боевик
Продолжительность: 01:53:27
Перевод: Профессиональный (полное дублирование) [iTunes]
Навигация по главам: есть
Субтитры: нет
Режиссер: Даг Лайман / Doug Liman- -В ролях:
Том Круз, Эмили Блант, Брендан Глисон, Билл Пэкстон, Джонас Армстронг, Тони Вэй, Кик Гарри, Франц Драмех, Драгомир Мрсич, Шарлотта Райли и др.
Описание:
История разворачивается в недалеком будущем, когда похожая на рой раса инопланетян, названных мимиками, совершает безжалостное нападение на Землю, стерев в пыль крупные города и уничтожив миллионы жизней. Армии Земли объединят силы, чтобы вступить в последний бой с полчищами инопланетян, зная, что второго шанса у них не будет.
Подполковник Билл Кейдж — ни разу не был на поле битвы, пока его не бросили в самую гущу боя неподготовленного и плохо снаряженного, фактически обрекая на смерть. Через считанные минуты Кейджа убивают, но он захватывает с собой и жизнь пришельца. И случается невозможное — он просыпается живым в начале того же адского дня, и вынужден сражаться и умирать… снова и снова. Прямой физический контакт с пришельцем замкнул временную петлю, и теперь Кейдж вновь и вновь идет в тот же бой.
Но с каждым возвращением Кейдж становится более жестоким и умным в битве с мимиками, сражаясь бок о бок с бойцом спецназа Ритой Вратаски, уничтожившей больше мимиков, чем кто бы то ни было еще на Земле. Рита и Кейдж раз за разом дают бой пришельцам, и каждое повторяющееся сражение приближает их к разгадке того, как убить инопланетных захватчиков и спасти планету.
Качество: WEB-DL 720p
Формат: MKV
Видео: AVC, 1280x532 (2.40:1), 23.976 fps, 4 192 Kbps (0.257 bit/pixel)
Аудио #1: AC-3, 48.0 KHz, 6 ch, 384 Kbps, CBR (Russian)
Аудио #2: AC-3, 48.0 KHz, 6 ch, 384 Kbps, CBR (English)

MI

Код:
General
Unique ID                                : 235815561296686665349384452742855600971 (0xB1686CD26531522BA309F5B401C92B4B)
Complete name                            : C:\Downloads\tracker.hitv.ru\Edge.of.Tomorrow.2014.WEB-DL-720p.Rus.Eng.C!v.mkv
Format                                   : Matroska
Format version                           : Version 4 / Version 2
File size                                : 4.01 GiB
Duration                                 : 1h 53mn
Overall bit rate                         : 5 060 Kbps
Encoded date                             : UTC 2014-09-10 18:46:39
Writing application                      : mkvmerge v6.5.0 ('Isn't she lovely') built on Oct 20 2013 12:50:05
Writing library                          : libebml v1.3.0 + libmatroska v1.4.1
DURATION                                 : 01:53:27.520000000
NUMBER_OF_FRAMES                         : 212735
NUMBER_OF_BYTES                          : 326760960
_STATISTICS_WRITING_APP                  : mkvmerge v7.1.0 ('Good Love') 64bit built on Jul 27 2014 13:06:55
_STATISTICS_WRITING_DATE_UTC             : 2014-09-09 05:48:41
_STATISTICS_TAGS                         : BPS DURATION NUMBER_OF_FRAMES NUMBER_OF_BYTES
Video
ID                                       : 1
Format                                   : AVC
Format/Info                              : Advanced Video Codec
Format profile                           : Main@L3.1
Format settings, CABAC                   : No
Format settings, ReFrames                : 2 frames
Format settings, GOP                     : N=1
Codec ID                                 : V_MPEG4/ISO/AVC
Duration                                 : 1h 53mn
Bit rate                                 : 4 192 Kbps
Width                                    : 1 280 pixels
Height                                   : 532 pixels
Display aspect ratio                     : 2.40:1
Frame rate mode                          : Constant
Frame rate                               : 23.976 fps
Color space                              : YUV
Chroma subsampling                       : 4:2:0
Bit depth                                : 8 bits
Scan type                                : Progressive
Bits/(Pixel*Frame)                       : 0.257
Stream size                              : 3.32 GiB (83%)
Language                                 : English
Default                                  : Yes
Forced                                   : No
Color primaries                          : BT.709
Transfer characteristics                 : BT.709
Matrix coefficients                      : BT.709
Audio #1
ID                                       : 2
Format                                   : AC-3
Format/Info                              : Audio Coding 3
Mode extension                           : CM (complete main)
Format settings, Endianness              : Big
Codec ID                                 : A_AC3
Duration                                 : 1h 53mn
Bit rate mode                            : Constant
Bit rate                                 : 384 Kbps
Channel count                            : 6 channels
Channel positions                        : Front: L C R, Side: L R, LFE
Sampling rate                            : 48.0 KHz
Bit depth                                : 16 bits
Compression mode                         : Lossy
Stream size                              : 312 MiB (8%)
Language                                 : Russian
Default                                  : Yes
Forced                                   : No
Audio #2
ID                                       : 3
Format                                   : AC-3
Format/Info                              : Audio Coding 3
Mode extension                           : CM (complete main)
Format settings, Endianness              : Big
Codec ID                                 : A_AC3
Duration                                 : 1h 53mn
Bit rate mode                            : Constant
Bit rate                                 : 384 Kbps
Channel count                            : 6 channels
Channel positions                        : Front: L C R, Side: L R, LFE
Sampling rate                            : 48.0 KHz
Bit depth                                : 16 bits
Compression mode                         : Lossy
Stream size                              : 312 MiB (8%)
Language                                 : English
Default                                  : No
Forced                                   : No
Menu
00:00:00.000                             : en:1.
00:10:25.000                             : en:2.
00:17:36.000                             : en:3.
00:24:46.000                             : en:4.
00:35:53.000                             : en:5.
00:46:22.000                             : en:6.
00:54:29.000                             : en:7.
01:04:53.000                             : en:8.
01:12:46.000                             : en:9.
01:23:01.000                             : en:10.
01:32:26.000                             : en:11.
01:42:45.000                             : en:12.
01:45:37.000                             : en:13.

Скриншоты

[Торрент-статистика]
[Профиль]  [ЛС] 
Показать сообщения:    
Ответить на тему

Текущее время: Сегодня 03:51

Часовой пояс: GMT + 4



Вы не можете начинать темы
Вы не можете отвечать на сообщения
Вы не можете редактировать свои сообщения
Вы не можете удалять свои сообщения
Вы не можете голосовать в опросах
Вы не можете прикреплять файлы к сообщениям
Вы не можете скачивать файлы