Космическая станция 76 / Space Station 76 ( Джек Плотник / Jack Plotnick) [2014 г., фантастика, драма, комедия, WEB-DL 720p] MVO iTunes

Ответить на тему
 
Автор
Сообщение

awk05 ®

Пол:

Стаж: 4 года 5 месяцев

Сообщений: 1352

Репутация: 275 [+] [-]

Откуда: Западная Украина Ривне

Пост 29-Сен-2014 12:44

[Цитировать] 

--Космическая станция 76 / Space Station 76
«Welcome to the future of your past»--
Год выпуска 2014
Страна: США
Жанр: фантастика, драма, комедия
Продолжительность: 01:34:51
Перевод: Профессиоанльное (многоголосое) + Original
Озвучка / Автор перевода: [iTunes]
Субтитры: отсутствуют--Режиссёр: Джек Плотник / Jack Plotnick --
В ролях: Патрик Уилсон (Captain Glenn), Лив Тайлер (Jessica),Мариса Кохлан (Misty),Мэтт Бомер (Ted),Джерри О’Коннелл (Steve),Кайли Роджерс (Sunshine),Кали Роча (Donna),Виктор Тогунде (James),Сэм Пэнкейк (Saul),Майкл Стоянов (Dr. Bot),Кэтерин Энн МакГрегор (Janice), и др.--Описание: Фильм снят в духе 70-х годов и так как они тогда воспринимали альтернативное будущее. Действия фильма разворачиваются в космосе на одной из орбитальных станций. Люди живут вместе с различными роботами. На станции всё протекало тихо и спокойно, пока туда не прибыл новый помощник капитана, он заставил всех встряхнуться...--Качество видео: WEB-DL 720p
Формат видео: MKV
Видео кодек: AVC (High@L4.1)
Аудио кодек: AC-3
Видео: AVC, 1280x528 (2.40:1), 23.976 fps, 3 611 Kbps (0.223 bit/pixel)
Аудио 1: AC-3, 48.0 KHz, 6 ch, 384 Kbps, CBR, 16 bits [Русский]
Аудио 2: AC-3, 48.0 KHz, 6 ch, 384 Kbps, CBR, 16 bits [Английский] -- --

Кадры из фильма

Тех. данные (MI)

Код:
Общее
Уникальный идентификатор                 : 247163250125993824620477094677903387951 (0xB9F1E913B548C438993C151E32D92D2F)
Полное имя                               : E:\тест\K0smi4eskaya.St4nciya.76.2014.P.WEBDL.720p.mkv
Формат                                   : Matroska
Версия формата                           : Version 4 / Version 2
Размер файла                             : 2,89 Гбайт
Продолжительность                        : 1 ч. 34 м.
Общий поток                              : 4358 Кбит/сек
Дата кодирования                         : UTC 2014-09-28 19:24:00
Программа кодирования                    : mkvmerge v6.9.1 ('Blue Panther') 64bit built on Apr 18 2014 18:23:38
Библиотека кодирования                   : libebml v1.3.0 + libmatroska v1.4.1
Видео
Идентификатор                            : 1
Формат                                   : AVC
Формат/Информация                        : Advanced Video Codec
Профиль формата                          : High@L4.1
Параметр CABAC формата                   : Да
Параметр ReFrames формата                : 4 кадра
Идентификатор кодека                     : V_MPEG4/ISO/AVC
Продолжительность                        : 1 ч. 34 м.
Битрейт                                  : 3611 Кбит/сек
Ширина                                   : 1280 пикселей
Высота                                   : 528 пикселей
Соотношение сторон                       : 2,40:1
Режим частоты кадров                     : Постоянный
Частота кадров                           : 23,976 кадра/сек
Цветовое пространство                    : YUV
Субдискретизация насыщенности            : 4:2:0
Битовая глубина                          : 8 бит
Тип развёртки                            : Прогрессивная
Бит/(Пиксели*Кадры)                      : 0.223
Размер потока                            : 2,32 Гбайт (80%)
Библиотека кодирования                   : x264 core 130 r2273 b3065e6
Настройки программы                      : cabac=1 / ref=1 / deblock=1:0:0 / analyse=0x3:0x113 / me=hex / subme=2 / psy=1 / psy_rd=1.00:0.00 / mixed_ref=0 / me_range=16 / chroma_me=1 / trellis=0 / 8x8dct=1 / cqm=0 / deadzone=21,11 / fast_pskip=1 / chroma_qp_offset=0 / threads=6 / lookahead_threads=2 / sliced_threads=0 / nr=0 / decimate=1 / interlaced=0 / bluray_compat=0 / constrained_intra=0 / bframes=3 / b_pyramid=2 / b_adapt=1 / b_bias=0 / direct=1 / weightb=1 / open_gop=0 / weightp=1 / keyint=240 / keyint_min=24 / scenecut=40 / intra_refresh=0 / rc_lookahead=10 / rc=abr / mbtree=1 / bitrate=3611 / ratetol=1.0 / qcomp=0.60 / qpmin=0 / qpmax=69 / qpstep=4 / vbv_maxrate=62500 / vbv_bufsize=78125 / nal_hrd=none / ip_ratio=1.40 / aq=1:1.00
Язык                                     : English
Default                                  : Да
Forced                                   : Нет
Основные цвета                           : BT.709
Характеристики трансфера                 : BT.709
Коэффициенты матрицы                     : BT.709
Аудио #1
Идентификатор                            : 2
Формат                                   : AC-3
Формат/Информация                        : Audio Coding 3
Расширение режима                        : CM (complete main)
Параметр Endianness формата              : Big
Идентификатор кодека                     : A_AC3
Продолжительность                        : 1 ч. 34 м.
Вид битрейта                             : Постоянный
Битрейт                                  : 384 Кбит/сек
Каналы                                   : 6 каналов
Расположение каналов                     : Front: L C R, Side: L R, LFE
Частота                                  : 48,0 КГц
Битовая глубина                          : 16 бит
Метод сжатия                             : С потерями
Размер потока                            : 261 Мбайт (9%)
Язык                                     : Russian
Default                                  : Да
Forced                                   : Нет
Аудио #2
Идентификатор                            : 3
Формат                                   : AC-3
Формат/Информация                        : Audio Coding 3
Расширение режима                        : CM (complete main)
Параметр Endianness формата              : Big
Идентификатор кодека                     : A_AC3
Продолжительность                        : 1 ч. 34 м.
Вид битрейта                             : Постоянный
Битрейт                                  : 384 Кбит/сек
Каналы                                   : 6 каналов
Расположение каналов                     : Front: L C R, Side: L R, LFE
Частота                                  : 48,0 КГц
Битовая глубина                          : 16 бит
Метод сжатия                             : С потерями
Размер потока                            : 261 Мбайт (9%)
Default                                  : Нет
Forced                                   : Нет
Меню
00:00:00.000                             : en:Chapter 1
00:05:26.242                             : en:Chapter 2
00:10:52.193                             : en:Chapter 3
00:16:42.002                             : en:Chapter 4
00:21:12.022                             : en:Chapter 5
00:26:28.171                             : en:Chapter 6
00:33:03.233                             : en:Chapter 7
00:40:21.212                             : en:Chapter 8
00:45:47.122                             : en:Chapter 9
00:50:56.181                             : en:Chapter 10
00:56:37.022                             : en:Chapter 11
01:07:05.150                             : en:Chapter 12
01:11:38.089                             : en:Chapter 13
01:16:28.171                             : en:Chapter 14
01:24:05.211                             : en:Chapter 15
01:30:37.187                             : en:Chapter 16

_________________
[Торрент-статистика]
[Профиль]  [ЛС] 
Показать сообщения:    
Ответить на тему

Текущее время: Сегодня 00:20

Часовой пояс: GMT + 4



Вы не можете начинать темы
Вы не можете отвечать на сообщения
Вы не можете редактировать свои сообщения
Вы не можете удалять свои сообщения
Вы не можете голосовать в опросах
Вы не можете прикреплять файлы к сообщениям
Вы не можете скачивать файлы