Холостячки в Вегасе / Best Night Ever (Джейсон Фридберг, Аарон Зельцер) [2014 г., Комедия, WEB-DL 1080p]

Ответить на тему
 
Автор
Сообщение

awk05 ®

Пол:

Стаж: 8 лет 10 месяцев

Сообщений: 1334

Репутация: 278 [+] [-]

Откуда: Западная Украина Ривне

Пост 08-Фев-2014 04:57

[Цитировать] 

--Холостячки в Вегасе / Best Night Ever
«Похмелье – это еще «цветочки»--
Страна: США
Жанр: комедия
Продолжительность: 01:18:36
Год выпуска 2014
Перевод: Профессиональный (дублированный) + Original
Субтитры: отсутствуют--
Режиссёр: Джейсон Фридберг, Аарон Зельцер--
В ролях: Дезри Холл (Claire), Саманта Колберн (Leslie), Эдвина Ричард (Zoe), Криста Флэнеган (Janet), Кристиан Барильяс (), Джейсон Бобьен (Really Skinny White Guy), Гайл Бранко (Stripper), Хантер Драго (Happy Couple), Мэтт Драго (Happy Couple), Энди Фавро (Rick)--
Описание: Перед тем как выйти замуж, молодая красотка отправляется с тремя лучшими подружками на свою последнюю холостяцкую вечеринку в Лас-Вегас. Все, что ни случается, к лучшему — гласит народная мудрость. Неужели это так, даже если все сумасшествие, происходящее в Лас-Вегасе, будет записано на видео?..--
Качество: WEB-DL 1080p
Формат: MKV
Видео кодек: AVC (High@L4.0)
Аудио кодек: AC3
Видео: 1920x1036 (1.85:1), 25,000 кадра/сек, 4000 Кбит/сек, 0.080 Бит/(Пиксели*Кадры)
Аудио: 2 канала Front: L R, 48,0 КГц, 384 Кбит/сек, 16 бит [RUS]-- --

MediaInfo

Общее
Уникальный идентификатор : 254784404210942855972469943105231140053 (0xBFADB0FBDF65EA54AE03FF47820234D5)
Полное имя : G:\Films-new\Holostyachki.2013.1080p.FreeRutor.mkv
Формат : Matroska
Версия формата : Version 2
Размер файла : 2,41 Гбайт
Продолжительность : 1 ч. 18 м.
Общий поток : 4381 Кбит/сек
Дата кодирования : UTC 2014-02-07 14:02:45
Программа кодирования : mkvmerge v6.2.0 ('Promised Land') built on Apr 28 2013 12:22:01
Библиотека кодирования : libebml v1.3.0 + libmatroska v1.4.0
Видео
Идентификатор : 1
Формат : AVC
Формат/Информация : Advanced Video Codec
Профиль формата : High@L4.0
Параметр CABAC формата : Да
Параметр ReFrames формата : 3 кадра
Идентификатор кодека : V_MPEG4/ISO/AVC
Продолжительность : 1 ч. 18 м.
Битрейт : 4000 Кбит/сек
Ширина : 1920 пикселей
Высота : 1036 пикселей
Соотношение сторон : 1,85:1
Режим частоты кадров : Постоянный
Частота кадров : 25,000 кадров/сек
Цветовое пространство : YUV
Субдискретизация насыщенности : 4:2:0
Битовая глубина : 8 бит
Тип развёртки : Прогрессивная
Бит/(Пиксели*Кадры) : 0.080
Размер потока : 2,15 Гбайт (89%)
Библиотека кодирования : x264 core 120
Настройки программы : cabac=1 / ref=3 / deblock=1:0:0 / analyse=0x3:0x133 / me=umh / subme=7 / psy=1 / psy_rd=1.00:0.00 / mixed_ref=1 / me_range=32 / chroma_me=1 / trellis=2 / 8x8dct=1 / cqm=0 / deadzone=21,11 / fast_pskip=1 / chroma_qp_offset=-2 / threads=12 / sliced_threads=0 / nr=0 / decimate=1 / interlaced=0 / bluray_compat=0 / constrained_intra=0 / bframes=0 / weightp=0 / keyint=75 / keyint_min=26 / scenecut=40 / intra_refresh=0 / rc_lookahead=50 / rc=2pass / mbtree=0 / bitrate=4000 / ratetol=1.0 / qcomp=0.20 / qpmin=10 / qpmax=51 / qpstep=4 / cplxblur=20.0 / qblur=0.5 / vbv_maxrate=5000 / vbv_bufsize=5000 / nal_hrd=none / ip_ratio=1.40 / aq=1:1.00
Default : Да
Forced : Нет
Основные цвета : BT.709
Характеристики трансфера : BT.709
Коэффициенты матрицы : BT.709
Аудио
Идентификатор : 2
Формат : AC-3
Формат/Информация : Audio Coding 3
Расширение режима : CM (complete main)
Параметр Endianness формата : Big
Идентификатор кодека : A_AC3
Продолжительность : 1 ч. 18 м.
Вид битрейта : Постоянный
Битрейт : 384 Кбит/сек
Каналы : 2 канала
Расположение каналов : Front: L R
Частота : 44,1 КГц
Битовая глубина : 16 бит
Метод сжатия : С потерями
Размер потока : 216 Мбайт (9%)
Default : Да
Forced : Нет

Скриншоты



_________________
[Торрент-статистика]
[Профиль]  [ЛС] 
Показать сообщения:    
Ответить на тему

Текущее время: Сегодня 02:33

Часовой пояс: GMT + 4



Вы не можете начинать темы
Вы не можете отвечать на сообщения
Вы не можете редактировать свои сообщения
Вы не можете удалять свои сообщения
Вы не можете голосовать в опросах
Вы не можете прикреплять файлы к сообщениям
Вы не можете скачивать файлы