Прежде чем я уйду / Just Before I Go (Кортни Кокс) [2014 г., драма, комедия, BDRip 1080p] [Paul Bunyan]

Ответить на тему
 
Автор
Сообщение

TiZAr ®

Пол:

Стаж: 7 лет 7 месяцев

Сообщений: 815

Репутация: 1160 [+] [-]

Откуда: Россия

Пост 17-Май-2015 11:20

[Цитировать] 

Прежде чем я уйду / Just Before I Go
Год выпуска: 2014
Страна: США
Жанр: драма, комедия
Продолжительность: 01:30:43
Перевод: Любительский (одноголосый) [Paul Bunyan]
Режиссер: Кортни Кокс
В ролях: Шонн Уильям Скотт, Оливия Тирлби, Гаррет Диллахант, Кейт Уолш, Кайл Галлнер, Роб Риггл, Ивэн Росс, Клео Кинг, Мисси Пайл, Элиша Катберт
Описание: Жизнь Теда потрепала его так, что стал задумываться о самоубийстве. До такого решения мужчина шел долгое время, ведь еще с самого детства он ощутил на себе, что такое неприятности. Когда он был подростком, то его постоянно терзали и оскорбляли хулиганы, а учитель математики и вовсе любил унижать Теда перед остальными учениками. Со временем детские обиды поутихли, но все же неприятный осадок остался.
По стечению обстоятельств, уже в зрелом возрасте Тед встречает своих обидчиков из детства. Как оказалось, жизнь у них сложилась тоже совсем непросто, ведь один хулиган, теперь уже вдовец и самостоятельно воспитывает сына с синдромом Дауна, и содержит его на свой очень скромный заработок. Преподаватель математики и вовсе сошел с ума, и теперь проходит лечение в больнице для душевнобольных. Хотя, жизнь, по сути, наказала обидчиков Теда, но его все равно не покидают мысли о суициде…

Сэмпл: http://sendfile.su/1118476

Тип релиза: BDRip 1080p
Контейнер: MKV
Видео кодек: AVC
Аудио кодек: AC3 (Dolby Digital)
Видео: MPEG-4 AVC, 7267 Кбит/с, 1920x800, 23.976 кадр/с
Аудио: Russian/English: AC3, 640 kb/s (6 ch)

MI

x264 [info]: frame I:978 Avg QP:15.61 size:218142
x264 [info]: frame P:25996 Avg QP:17.77 size: 79820
x264 [info]: frame B:103538 Avg QP:19.78 size: 25661
********************************************************
Формат : Matroska
Версия формата : Version 2
Размер файла : 5,42 Гбайт
Продолжительность : 1 ч. 30 м.
Общий поток : 8550 Кбит/сек
Название фильма : ~V ad~
Дата кодирования : UTC 2015-05-15 20:53:12
Программа кодирования : mkvmerge v6.1.0 ('Old Devil') built on Mar 4 2013 09:10:42
Библиотека кодирования : libebml v1.3.0 + libmatroska v1.4.0
Видео
Идентификатор : 1
Формат : AVC
Формат/Информация : Advanced Video Codec
Профиль формата : High@L4.1
Параметр CABAC формата : Да
Параметр ReFrames формата : 5 кадров
Идентификатор кодека : V_MPEG4/ISO/AVC
Продолжительность : 1 ч. 30 м.
Битрейт : 7267 Кбит/сек
Ширина : 1920 пикселей
Высота : 800 пикселей
Соотношение сторон : 2,40:1
Режим частоты кадров : Постоянный
Частота кадров : 23,976 кадра/сек
Цветовое пространство : YUV
Субдискретизация насыщенности : 4:2:0
Битовая глубина : 8 бит
Тип развёртки : Прогрессивная
Бит/(Пиксели*Кадры) : 0.197
Размер потока : 4,50 Гбайт (83%)
Заголовок : ~V~
Библиотека кодирования : x264 core 142 r0+4281 a3bf0d5 Test [8-bit@all X86_64]
Настройки программы : cabac=1 / ref=5 / deblock=1:-3:-3 / analyse=0x3:0x133 / me=umh / subme=11 / psy=1 / fade_compensate=0.00 / psy_rd=1.00:0.00 / mixed_ref=1 / me_range=32 / chroma_me=1 / trellis=2 / 8x8dct=1 / cqm=0 / deadzone=21,11 / fast_pskip=0 / chroma_qp_offset=-2 / threads=12 / lookahead_threads=1 / sliced_threads=0 / nr=0 / decimate=0 / interlaced=0 / bluray_compat=0 / constrained_intra=0 / fgo=0 / bframes=10 / b_pyramid=2 / b_adapt=2 / b_bias=0 / direct=3 / weightb=1 / open_gop=0 / weightp=2 / keyint=240 / keyint_min=23 / scenecut=40 / intra_refresh=0 / rc=2pass / mbtree=0 / bitrate=7267 / ratetol=1.0 / qcomp=0.60 / qpmin=0:0:0 / qpmax=69:69:69 / qpstep=4 / cplxblur=20.0 / qblur=0.5 / ip_ratio=1.40 / pb_ratio=1.30 / aq=4:0.80 / aq-sensitivity=10.00 / aq-factor=1.00:1.00:1.00 / aq2=0 / aq3=0
Язык : English
Default : Да
Forced : Нет
Аудио #1
Идентификатор : 2
Формат : AC-3
Формат/Информация : Audio Coding 3
Расширение режима : CM (complete main)
Параметр Endianness формата : Big
Идентификатор кодека : A_AC3
Продолжительность : 1 ч. 30 м.
Вид битрейта : Постоянный
Битрейт : 640 Кбит/сек
Каналы : 6 каналов
Расположение каналов : Front: L C R, Side: L R, LFE
Частота : 48,0 КГц
Битовая глубина : 16 бит
Метод сжатия : С потерями
Размер потока : 415 Мбайт (7%)
Заголовок : VO [Paul Bunyan]
Язык : Russian
Default : Да
Forced : Да
Аудио #2
Идентификатор : 3
Формат : AC-3
Формат/Информация : Audio Coding 3
Расширение режима : CM (complete main)
Параметр Endianness формата : Big
Идентификатор кодека : A_AC3
Продолжительность : 1 ч. 30 м.
Вид битрейта : Постоянный
Битрейт : 640 Кбит/сек
Каналы : 6 каналов
Расположение каналов : Front: L C R, Side: L R, LFE
Частота : 48,0 КГц
Битовая глубина : 16 бит
Метод сжатия : С потерями
Размер потока : 415 Мбайт (7%)
Язык : English
Default : Нет
Forced : Нет
Меню
00:00:00.000 : en:Chapter 01
00:05:53.061 : en:Chapter 02
00:11:51.043 : en:Chapter 03
00:17:49.693 : en:Chapter 04
00:25:01.124 : en:Chapter 05
00:34:26.606 : en:Chapter 06
00:43:10.754 : en:Chapter 07
00:52:33.650 : en:Chapter 08
01:02:37.503 : en:Chapter 09
01:10:35.439 : en:Chapter 10
01:18:08.475 : en:Chapter 11
01:25:58.570 : en:Chapter 12

Скриншоты


_________________
Не стоит обращать внимания на отсутствие сидов на моих раздачах. Все мои релизы мультитрекерные - нет сидов, включите DHT.
За релизами в HD качестве обращайтесь в личку, либо отписывайтесь в теме.
[Торрент-статистика]
[Профиль]  [ЛС] 
Показать сообщения:    
Ответить на тему

Текущее время: Сегодня 07:09

Часовой пояс: GMT + 4



Вы не можете начинать темы
Вы не можете отвечать на сообщения
Вы не можете редактировать свои сообщения
Вы не можете удалять свои сообщения
Вы не можете голосовать в опросах
Вы не можете прикреплять файлы к сообщениям
Вы не можете скачивать файлы