Двойной форсаж / 2 Fast 2 Furious (Джон Синглтон / John Singleton) [2003 г., США, Германия, Боевик, Триллер, Криминал, BDRemux 1080p] Dub + Original Eng

Ответить на тему
 
Автор
Сообщение

sergei78 ®

Пол:

Стаж: 3 года 2 месяца

Сообщений: 92

Репутация: 120 [+] [-]

Откуда: Бывший СССР: "Связист Кстово 100/40"

Пост 09-Апр-2015 21:23

[Цитировать] 

-Двойной форсаж / 2 Fast 2 Furious-- Год выпуска: 2003
Страна: США
Жанр: Боевик, Триллер, Криминал
Продолжительность: 01:47:41
Перевод: Профессиональный (полное дублирование)
Русские субтитры: нет-Режиссер: Джон Синглтонp-В ролях: Пол Уокер, Тайрес, Ева Мендес, Коль Хаузер, Лудакрис, Том Барри-Описание:
Бывший полицейский Брайан О'Коннер вместе с напарником Романом Пирсом собираются перевезти крупную сумму "грязных" денег известного мафиози Картера Верона в качестве его подручных. Но на самом деле эта работа является только прикрытием для Брайана, который вместе с тайным агентом Моникой Клемент должны уличить изворотливого преступника...-Качество: Blu-Ray Remux
Формат: M2TS
Видео кодек: MPEG 4/AVC
Аудио кодек: AC3
Видео: 1920x1080, 23.976 fps, bitrate - 32.7 Mb/s
Аудио RUS: Dolby Digital 48kHz 5.1 384 Kb/s;
Аудио ENG: Dolby Digital 48kHz 5.1 640 Kbps-

Mi

Генерал
ID: 0 (0x0)
Полное название: \ FORSAZH_2 \ BDMV \ STREAM \ 00000.m2ts
Формат: BDAV
Формат / Информация: Blu-Ray Видео
Размер файла: 26,6 Гигабайт
Продолжительность: 1 час 47 млн
В целом режим битрейт: Переменная
В целом скорость передачи: 35,4 Мбит
Максимальные габаритные размеры битрейт: 48,0 Мбит
Видео
ID: 4113 (0x1011)
Меню ID: 1 (0x1)
Формат: AVC
Формат / Информация: Advanced Video Codec
Профиль формата: High@L4.1
Установки формата CABAC: Да
Установки формата меняет взгляды: 4 кадра
Кодек ID: 27
Продолжительность: 1 час 47 млн
Режим скорости передачи данных: Переменная
Скорость передачи данных: 32,9 Мб
Максимальная скорость передачи данных: 34,5 Мб
Ширина: 1 920 пикселей
Высота: 1 080 пикселей
Показать Соотношение сторон: 16: 9
Частота кадров: 23,976 кадров в секунду
Цветовое пространство: YUV
Chroma субвыборку: 4: 2: 0
Разрядность: 8 бит
Тип сканирования: Прогрессивная
Биты / (Pixel * Frame): 0,662
Размер потока: 24,8 Гигабайт (93%)
Цвет праймериз: BT.709
Трансфер характеристики: BT.709
Коэффициенты матрицы: BT.709
Цветовая гамма: Общество с ограниченной
Аудио # 1
ID: 4352 (0x1100)
Меню ID: 1 (0x1)
Формат: AC-3
Формат / Информация: Audio Coding 3
Расширение режима: CM (полный основной)
Установки формата Порядок байтов: Большой
Кодек ID: 129
Продолжительность: 1 час 47 млн
Режим скорости передачи данных: Постоянная
Скорость передачи данных: 384 Kbps
Канал (ы): 6 каналов
Положение каналов: Front: LCR, Боковые: LR, LFE
Частота дискретизации: 48.0 кГц
Разрядность: 16 бит
Режим сжатия: С потерями
Размер потока: 296 MiB (1%)
Аудио # 2
ID: 4353 (0x1101)
Меню ID: 1 (0x1)
Формат: AC-3
Формат / Информация: Audio Coding 3
Расширение режима: CM (полный основной)
Установки формата Порядок байтов: Большой
Кодек ID: 129
Продолжительность: 1 час 47 млн
Режим скорости передачи данных: Постоянная
Скорость передачи данных: 640 Kbps
Канал (ы): 6 каналов
Положение каналов: Front: LCR, Боковые: LR, LFE
Частота дискретизации: 48.0 кГц
Разрядность: 16 бит
Режим сжатия: С потерями
Размер потока: 493 MiB (2%)
-

Скриншоты

-

Знаете ли вы, что...

*Уже после того, как начались съемки, выяснилось, что у Девон Аоки нет ни прав, ни водительского опыта.
*Съемки картины начались 9-го сентября 2002 года в Майами.
- -- -
[Торрент-статистика]
[Профиль]  [ЛС] 
Показать сообщения:    
Ответить на тему

Текущее время: Сегодня 22:11

Часовой пояс: GMT + 4



Вы не можете начинать темы
Вы не можете отвечать на сообщения
Вы не можете редактировать свои сообщения
Вы не можете удалять свои сообщения
Вы не можете голосовать в опросах
Вы не можете прикреплять файлы к сообщениям
Вы не можете скачивать файлы