РобоКоп / RoboCop (Жозе Падилья / José Padilha) [2014, США, фантастика, боевик, криминал, BDRemux 1080p] Dub

Ответить на тему
 
Автор
Сообщение

sergei78 ®

Пол:

Стаж: 7 лет 6 месяцев

Сообщений: 89

Репутация: 120 [+] [-]

Откуда: Бывший СССР: "Связист Кстово 100/40"

Пост 23-Дек-2014 09:00

[Цитировать] 

РобоКоп / RoboCopСтрана: США
Студия: Metro-Goldwyn-Mayer (MGM), Columbia Pictures, Strike Entertainment
Жанр: фантастика, боевик, криминал
Год выпуска: 2014
Продолжительность: 01:57:29
Перевод: Профессиональный (дублированный) Blu-Ray CEE
Cубтитры: русские (forced, full)
Режиссер: Жозе Падилья / José Padilha
В ролях: Юэль Киннаман, Гари Олдман, Майкл Китон, Сэмюэл Л. Джексон, Эбби Корниш, Джеки Эрл Хейли, Майкл К. Уильямс, Дженнифер Или, Джей Барушель, Марианн Жан-Батист
Описание: 2028 год. Международный конгломерат ОмниКорп лидирует в производстве робототехники. Благодаря разработкам компании Америка успешно побеждает в войнах по всему миру. Но теперь пришло время применить технологию на американской земле. Алекс Мерфи - любящий муж, отец и отличный полицейский, оберегающий порядок в Детройте, получает на службе смертельные ранения. Специалисты ОмниКорпа, используя новейшие разработки, сохраняют ему жизнь. Алекс возвращается на службу в родной город не только с новыми сверхспособностями, но и с проблемами, с которыми не сталкивался ни один живой человек.
Тип релиза: BDRemux 1080p
Контейнер: MKV
Видео: AVC, 1920x1080, 26286 kbps, 23.976 fps
Аудио: Russian: 48 kHz, DTS, 3/2 (L,C,R,l,r) + LFE ch, ~768 kbps avg |Blu-ray CEE|
Чаптеры:есть

MediaInfo

General
Unique ID : 181532905875140825131017049301565779984 (0x8891F7474C0A1AAAAD8F2D2E394B3010)
Complete name : D:\рипы\Robocop.2014.BDRemux-Talian-.mkv
Format : Matroska
Format version : Version 2
File size : 35.6 GiB
Duration : 1h 57mn
Overall bit rate mode : Variable
Overall bit rate : 43.4 Mbps
Movie name : -Talian-
Encoded date : UTC 2014-07-08 13:11:09
Writing application : mkvmerge v5.7.0 ('The Whirlwind') built on Jul 8 2012 20:08:51
Writing library : libebml v1.2.3 + libmatroska v1.3.0
Attachment : Yes
Video
ID : 1
Format : AVC
Format/Info : Advanced Video Codec
Format profile : High@L4.1
Format settings, CABAC : Yes
Format settings, ReFrames : 4 frames
Codec ID : V_MPEG4/ISO/AVC
Duration : 1h 57mn
Bit rate mode : Variable
Bit rate : 34.4 Mbps
Maximum bit rate : 32.0 Mbps
Width : 1 920 pixels
Height : 1 080 pixels
Display aspect ratio : 16:9
Frame rate : 23.976 fps
Color space : YUV
Chroma subsampling : 4:2:0
Bit depth : 8 bits
Scan type : Progressive
Bits/(Pixel*Frame) : 0.691
Stream size : 28.2 GiB (79%)
Title : BDRemux
Language : English
Default : Yes
Forced : No
Audio #1
ID : 2
Format : DTS
Format/Info : Digital Theater Systems
Codec ID : A_DTS
Duration : 1h 57mn
Bit rate mode : Constant
Bit rate : 755 Kbps
Channel(s) : 6 channels
Channel positions : Front: L C R, Side: L R, LFE
Sampling rate : 48.0 KHz
Bit depth : 24 bits
Compression mode : Lossy
Stream size : 634 MiB (2%)
Title : Dub- Blu-Ray CEE
Language : Russian
Default : Yes
Forced : No
Text #1
ID : 9
Format : UTF-8
Codec ID : S_TEXT/UTF8
Codec ID/Info : UTF-8 Plain Text
Title : Sub-Forced
Language : Russian
Default : Yes
Forced : No
Text #2
ID : 10
Format : UTF-8
Codec ID : S_TEXT/UTF8
Codec ID/Info : UTF-8 Plain Text
Title : Sub-Full
Language : Russian
Default : No
Forced : No
Menu
00:00:00.000 : en:Chapter 1
00:04:33.898 : en:Chapter 2
00:08:51.739 : en:Chapter 3
00:14:33.914 : en:Chapter 4
00:17:01.603 : en:Chapter 5
00:19:27.040 : en:Chapter 6
00:21:52.936 : en:Chapter 7
00:26:13.571 : en:Chapter 8
00:30:47.971 : en:Chapter 9
00:32:48.675 : en:Chapter 10
00:36:12.378 : en:Chapter 11
00:39:06.969 : en:Chapter 12
00:43:03.497 : en:Chapter 13
00:45:40.654 : en:Chapter 14
00:52:10.377 : en:Chapter 15
00:57:21.187 : en:Chapter 16
01:01:23.888 : en:Chapter 17
01:02:59.901 : en:Chapter 18
01:06:05.920 : en:Chapter 19
01:10:30.476 : en:Chapter 20
01:13:26.527 : en:Chapter 21
01:18:24.866 : en:Chapter 22
01:21:56.202 : en:Chapter 23
01:26:04.993 : en:Chapter 24
01:28:06.906 : en:Chapter 25
01:32:02.975 : en:Chapter 26
01:35:52.955 : en:Chapter 27
01:38:30.654 : en:Chapter 28
01:41:30.751 : en:Chapter 29
01:43:44.635 : en:Chapter 30
01:46:41.561 : en:Chapter 31
01:50:12.689 : en:Chapter 32

Скриншоты

[Торрент-статистика]
[Профиль]  [ЛС] 
Показать сообщения:    
Ответить на тему

Текущее время: Сегодня 06:20

Часовой пояс: GMT + 4



Вы не можете начинать темы
Вы не можете отвечать на сообщения
Вы не можете редактировать свои сообщения
Вы не можете удалять свои сообщения
Вы не можете голосовать в опросах
Вы не можете прикреплять файлы к сообщениям
Вы не можете скачивать файлы