Тотальная слежка / La Totale! (Клод Зиди / Claude Zidi) [1991 г., комедия, приключения, BDRip 1080p] 2MVO

Ответить на тему
 
Автор
Сообщение

jons3 ®

Стаж: 6 лет 7 месяцев

Сообщений: 155

Репутация: 66 [+] [-]

Пост 24-Окт-2014 15:17

[Цитировать] 

Тотальная слежка / La Totale!Год выпуска: 1991
Страна: Франция
Жанр: комедия, приключения
Продолжительность: 01:43:28
Перевод: Профессиональный (многоголосый, закадровый)
Режиссер: Клод Зиди / Claude Zidi
В ролях: Тьерри Лермитт, Миу-Миу, Эдди Митчелл, Мишель Бужена, Жан Бенгиги, Анник Алан, Клаудине Вильде, Франсуа Хаджи-Лазаро, Ян Эпстейн, Сагамор Стевенен
Описание: Жена главного героя уверена, что ее муж работает скромным государстенным служащим министерства связи, а он оказывается секретным агентом, выполняющим рискованнейшие задания правительства. Случайно узнав, что жена, чтобы развеять монотонность супружеской жизни, встречается с неким Симоном, выдающим себя за эдакого Джеймса Бонда. Муж использует свои служебные возможности, чтобы проучить Симона и вернуть жену. Но он никак не ожидал, что в этот момент за ними начнут охоту настоящие террористы.

Тип релиза: BDRip 1080p
Контейнер: MKV
Видео кодек: H264 (AVC)
Аудио кодек: AC3 (Dolby Digital)
Видео: 16.5 Мбит/с, 1804x1080, 24.000 кадр/с
Звук1 Русский (AC3, 6 ch, 448 Кбит/с) [многоголосый]
Звук2: Русский (AC3, 2 ch, 448 Кбит/с) [многоголосый]
Звук3: Французский (DTS, 2 ch, 1509 Кбит/с) [Original]

Релиз

Ввиду того, что в исходнике русская дорожка псевдодутая (оригинальная речь слышна во всех каналах), то к раздаче сделан 2-канальный звук дополнительной дорожкой

MediaInfo

---------------------------------------------------------------------------------------
x264 [info]: frame I:934 Avg QP:18.08 size:198743
x264 [info]: frame P:30145 Avg QP:20.29 size:129493
x264 [info]: frame B:117935 Avg QP:22.17 size: 73582
---------------------------------------------------------------------------------------
Полное имя : La.Totale.1991.x264.BDRip.1080p.0ptimus.mkv
Формат : Matroska
Версия формата : Version 2
Размер файла : 13,6 Гбайт
Продолжительность : 1 ч. 43 м.
Общий поток : 18,9 Мбит/сек
Название фильма : Тотальная слежка | The Jackpot! | La totale! [1991] -= BDRip (1080p) by 0ptimus =-
Дата кодирования : UTC 2014-06-17 07:30:16
Программа кодирования : mkvmerge v6.6.0 ('The Edge Of The In Between') built on Dec 1 2013 17:55:00
Библиотека кодирования : libebml v1.3.0 + libmatroska v1.4.1
Видео
Идентификатор : 1
Формат : AVC
Формат/Информация : Advanced Video Codec
Профиль формата : High@L4.1
Параметр CABAC формата : Да
Параметр ReFrames формата : 4 кадра
Идентификатор кодека : V_MPEG4/ISO/AVC
Продолжительность : 1 ч. 43 м.
Битрейт : 16,5 Мбит/сек
Ширина : 1804 пикселя
Высота : 1080 пикселей
Соотношение сторон : 1,670
Режим частоты кадров : Постоянный
Частота кадров : 24,000 кадра/сек
Цветовое пространство : YUV
Субдискретизация насыщенности : 4:2:0
Битовая глубина : 8 бит
Тип развёртки : Прогрессивная
Бит/(Пиксели*Кадры) : 0.352
Размер потока : 11,6 Гбайт (85%)
Заголовок : Rip by 0ptimus
Библиотека кодирования : x264 core 133 r2334 a3ac64b
Настройки программы : cabac=1 / ref=4 / deblock=1:-3:-3 / analyse=0x3:0x113 / me=umh / subme=11 / psy=1 / psy_rd=1.00:0.20 / mixed_ref=1 / me_range=32 / chroma_me=1 / trellis=2 / 8x8dct=1 / cqm=0 / deadzone=21,11 / fast_pskip=0 / chroma_qp_offset=-3 / threads=4 / lookahead_threads=1 / sliced_threads=0 / nr=0 / decimate=0 / interlaced=0 / bluray_compat=0 / constrained_intra=0 / bframes=9 / b_pyramid=2 / b_adapt=2 / b_bias=0 / direct=3 / weightb=1 / open_gop=0 / weightp=2 / keyint=240 / keyint_min=24 / scenecut=40 / intra_refresh=0 / rc_lookahead=40 / rc=2pass / mbtree=0 / bitrate=16451 / ratetol=1.0 / qcomp=0.60 / qpmin=0 / qpmax=69 / qpstep=4 / cplxblur=20.0 / qblur=0.5 / vbv_maxrate=50000 / vbv_bufsize=62500 / nal_hrd=none / ip_ratio=1.40 / pb_ratio=1.30 / aq=1:1.00
Язык : French
Default : Да
Forced : Да
Аудио #1
Идентификатор : 2
Формат : AC-3
Формат/Информация : Audio Coding 3
Расширение режима : CM (complete main)
Параметр Endianness формата : Big
Идентификатор кодека : A_AC3
Продолжительность : 1 ч. 43 м.
Вид битрейта : Постоянный
Битрейт : 448 Кбит/сек
Каналы : 6 каналов
Расположение каналов : Front: L C R, Side: L R, LFE
Частота : 48,0 КГц
Битовая глубина : 16 бит
Метод сжатия : С потерями
Размер потока : 332 Мбайт (2%)
Заголовок : Многоголосый [R5] AC3 5.1 @ 448 kbps
Язык : Russian
Default : Да
Forced : Да
Аудио #2
Идентификатор : 3
Формат : AC-3
Формат/Информация : Audio Coding 3
Расширение режима : CM (complete main)
Параметр Endianness формата : Big
Идентификатор кодека : A_AC3
Продолжительность : 1 ч. 43 м.
Вид битрейта : Постоянный
Битрейт : 448 Кбит/сек
Каналы : 2 канала
Расположение каналов : Front: L R
Частота : 48,0 КГц
Битовая глубина : 16 бит
Метод сжатия : С потерями
Размер потока : 332 Мбайт (2%)
Заголовок : Многоголосый [R5] AC3 2.0 @ 448 kbps
Язык : Russian
Default : Нет
Forced : Нет
Аудио #3
Идентификатор : 4
Формат : DTS
Формат/Информация : Digital Theater Systems
Режим : 16
Параметр Endianness формата : Big
Идентификатор кодека : A_DTS
Продолжительность : 1 ч. 43 м.
Вид битрейта : Постоянный
Битрейт : 1509 Кбит/сек
Каналы : 2 канала
Расположение каналов : Front: L R
Частота : 48,0 КГц
Битовая глубина : 24 бит
Метод сжатия : С потерями
Размер потока : 1,09 Гбайт (8%)
Заголовок : DTS 2.0 @ 1509 kbps
Язык : French
Default : Нет
Forced : Нет
Меню
00:00:00.000 : :Chapter 01
00:07:09.000 : :Chapter 02
00:15:55.915 : :Chapter 03
00:26:13.958 : :Chapter 04
00:33:58.665 : :Chapter 05
00:41:41.750 : :Chapter 06
00:50:09.625 : :Chapter 07
00:59:10.125 : :Chapter 08
01:08:08.833 : :Chapter 09
01:16:47.207 : :Chapter 10
01:24:27.832 : :Chapter 11
01:36:14.125 : :Chapter 12
01:43:28.666 : :Chapter 13

Скриншоты

Релиз от:
[Торрент-статистика]
[Профиль]  [ЛС] 
Показать сообщения:    
Ответить на тему

Текущее время: Сегодня 03:47

Часовой пояс: GMT + 4



Вы не можете начинать темы
Вы не можете отвечать на сообщения
Вы не можете редактировать свои сообщения
Вы не можете удалять свои сообщения
Вы не можете голосовать в опросах
Вы не можете прикреплять файлы к сообщениям
Вы не можете скачивать файлы