Пьяный мастер / Drunken Master (Ву-Пин Юэнь) [1978 г., Боевик, комедия, BDRip 1080p]

Ответить на тему
 
Автор
Сообщение

renta23 ®

Пол:

Стаж: 6 лет 7 месяцев

Сообщений: 42

Репутация: 39 [+] [-]

Откуда: Брянск

Пост 16-Окт-2014 15:44

[Цитировать] 

Пьяный мастер
Drunken Master
--- Год выпуска: 1978
Страна: Гонконг
Жанр: Боевик, комедия
Продолжительность: 01:51:11---Перевод: Профессиональный (многоголосый, закадровый) ОРТ
Перевод: Профессиональный (двухголосый, закадровый) Премьер Видео
Перевод: Авторский (одноголосый) Пучков
Перевод: Профессиональный (двухголосый, закадровый) Украинский
Режиссер: Ву-Пин Юэнь
В ролях: Джеки Чан, Саймон Юэнь ст., Янг Ли Хванг, Чианг Кам, Чиао Лин--Описание: Молодой Вонг Фей-Хун, будущий народный герой Китая, защитник обездоленных и обиженных, в молодости был весьма строптив и дерзок. Настолько, что отец отослал неуправляемого сына к дяде, известному мастеру кунг-фу и большому эксперту в двух вещах: распитии крепких спиртных напитков и выбивании дури из самонадеянных юнцов. Неудивительно, что герой сбегает от дяди-садиста при первой же возможности.
Увы, тут же побитый и униженный бандитом-профи, он возвращается назад к Пьяному Мастеру. Придется ему, скрипя зубами, терпеть иезуитские методы воспитания дяди, дабы потом, постигнув все тонкости боевых искусств, отомстить своему обидчику, который, к тому же, собирается убить его отца…
Персонаж Джеки Чана Хуан Фэйхун — реальная фигура китайской истории, мастер единоборств, целитель и революционер. Он стал героем китайского фольклора и много раз появлялся в фильмах и телевизионных программах Гонконга.
Другой персонаж, Су Хай или "Нищий Со" — также основан на историческом Соу Чхане (Су Цане), одном из "Десяти Кантонских Тигров", в число которых входил и отец Фэйхуна Вон Кхейин (Хуан Циин).

Качество: BDRip
Формат: MKV
Видео кодек: H264
Аудио кодек: AC3
Видео: MPEG4 Video (H264), 1920x800, 59.94fps, 12.0 Mbps
Аудио #1: Русский - Dolby AC3, 48000 Hz, 2ch, 192 kbps - Многоголосый
Аудио #2: Русский - Dolby AC3, 48000 Hz, 2ch, 192 kbps - Двухголосый
Аудио #3: Русский - Dolby AC3, 48000 Hz, 2ch, 192 kbps - Одноголосый
Аудио #4: Украинский - Dolby AC3, 48000 Hz, 2ch, 192 kbps - Двухголосый
Субтитры: Русские, английские
--Сэмпл--

MediaInfo:

General
Unique ID : 234500241994568170419194071747407574294 (0xB06B1A92CA441F9BBCABB212F416F516)
Complete name : F:DVDRip1978 Пьяный мастер (1).mkv
Format : Matroska
Format version : Version 4 / Version 2
File size : 9.93 GiB
Duration : 1h 51mn
Overall bit rate : 12.8 Mbps
Encoded date : UTC 2014-10-02 13:11:40
Writing application : mkvmerge v7.1.0 ('Good Love') 32bit built on Jul 27 2014 12:59:18
Writing library : libebml v1.3.0 + libmatroska v1.4.1
DURATION : 01:49:12.504000000
NUMBER_OF_FRAMES : 1870
NUMBER_OF_BYTES : 9104809
_STATISTICS_WRITING_APP : mkvmerge v7.1.0 ('Good Love') 32bit built on Jul 27 2014 12:59:18
_STATISTICS_WRITING_DATE_UTC : 2014-10-02 13:11:40
_STATISTICS_TAGS : BPS DURATION NUMBER_OF_FRAMES NUMBER_OF_BYTES
Video
ID : 1
Format : AVC
Format/Info : Advanced Video Codec
Format profile : High@L4.1
Format settings, CABAC : Yes
Format settings, ReFrames : 3 frames
Codec ID : V_MPEG4/ISO/AVC
Bit rate : 12.0 Mbps
Width : 1 920 pixels
Height : 800 pixels
Display aspect ratio : 2.40:1
Frame rate mode : Variable
Original frame rate : 59.940 fps
Color space : YUV
Chroma subsampling : 4:2:0
Bit depth : 8 bits
Scan type : Progressive
Bits/(Pixel*Frame) : 0.130
Title : Пьяный мастер / Jui Kuen (1978) / renta23
Writing library : x264 core 125 r2208 d9d2288
Encoding settings : cabac=1 / ref=4 / deblock=1:-1:-1 / analyse=0x3:0x133 / me=umh / subme=11 / psy=1 / psy_rd=1.15:0.25 / mixed_ref=1 / me_range=24 / chroma_me=1 / trellis=2 / 8x8dct=1 / cqm=0 / deadzone=21,11 / fast_pskip=0 / chroma_qp_offset=-4 / threads=12 / lookahead_threads=2 / sliced_threads=0 / nr=0 / decimate=1 / interlaced=0 / bluray_compat=0 / constrained_intra=0 / bframes=6 / b_pyramid=1 / b_adapt=2 / b_bias=0 / direct=3 / weightb=1 / open_gop=0 / weightp=2 / keyint=250 / keyint_min=25 / scenecut=40 / intra_refresh=0 / rc_lookahead=50 / rc=2pass / mbtree=1 / bitrate=12000 / ratetol=1.0 / qcomp=0.60 / qpmin=0 / qpmax=69 / qpstep=4 / cplxblur=20.0 / qblur=0.5 / ip_ratio=1.40 / aq=2:1.00
Language : English
Default : Yes
Forced : No
Audio #1
ID : 2
Format : AC-3
Format/Info : Audio Coding 3
Mode extension : CM (complete main)
Format settings, Endianness : Big
Codec ID : A_AC3
Duration : 1h 51mn
Bit rate mode : Constant
Bit rate : 192 Kbps
Channel(s) : 2 channels
Channel positions : Front: L R
Sampling rate : 48.0 KHz
Bit depth : 16 bits
Compression mode : Lossy
Stream size : 153 MiB (2%)
Language : Russian
Default : Yes
Forced : No
Audio #2
ID : 3
Format : AC-3
Format/Info : Audio Coding 3
Mode extension : CM (complete main)
Format settings, Endianness : Big
Codec ID : A_AC3
Duration : 1h 51mn
Bit rate mode : Constant
Bit rate : 192 Kbps
Channel(s) : 2 channels
Channel positions : Front: L R
Sampling rate : 48.0 KHz
Bit depth : 16 bits
Compression mode : Lossy
Stream size : 153 MiB (2%)
Language : Russian
Default : No
Forced : No
Audio #3
ID : 4
Format : AC-3
Format/Info : Audio Coding 3
Mode extension : CM (complete main)
Format settings, Endianness : Big
Codec ID : A_AC3
Duration : 1h 51mn
Bit rate mode : Constant
Bit rate : 192 Kbps
Channel(s) : 2 channels
Channel positions : Front: L R
Sampling rate : 48.0 KHz
Bit depth : 16 bits
Compression mode : Lossy
Stream size : 153 MiB (2%)
Language : Russian
Default : No
Forced : No
Audio #4
ID : 5
Format : AC-3
Format/Info : Audio Coding 3
Mode extension : CM (complete main)
Format settings, Endianness : Big
Codec ID : A_AC3
Duration : 1h 51mn
Bit rate mode : Constant
Bit rate : 192 Kbps
Channel(s) : 2 channels
Channel positions : Front: L R
Sampling rate : 48.0 KHz
Bit depth : 16 bits
Compression mode : Lossy
Stream size : 153 MiB (2%)
Language : Ukrainian
Default : No
Forced : No
Text #1
ID : 6
Format : PGS
Muxing mode : zlib
Codec ID : S_HDMV/PGS
Codec ID/Info : The same subtitle format used on BDs/HD-DVDs
Language : Russian
Default : Yes
Forced : No
Text #2
ID : 7
Format : PGS
Muxing mode : zlib
Codec ID : S_HDMV/PGS
Codec ID/Info : The same subtitle format used on BDs/HD-DVDs
Language : English
Default : No
Forced : No
Menu
00:00:00.000 : en:Chapter 01
00:07:46.048 : en:Chapter 02
00:15:18.542 : en:Chapter 03
00:25:17.724 : en:Chapter 04
00:31:18.543 : en:Chapter 05
00:41:02.543 : en:Chapter 06
00:47:11.245 : en:Chapter 07
00:51:10.025 : en:Chapter 08
00:58:07.692 : en:Chapter 09
01:05:03.566 : en:Chapter 10
01:11:51.765 : en:Chapter 11
01:16:48.645 : en:Chapter 12
01:21:56.494 : en:Chapter 13
01:26:35.023 : en:Chapter 14
01:36:07.219 : en:Chapter 15
01:39:30.839 : en:Chapter 16
--

Скриншоты:

-
[Торрент-статистика]
[Профиль]  [ЛС] 
Показать сообщения:    
Ответить на тему

Текущее время: Сегодня 06:17

Часовой пояс: GMT + 4



Вы не можете начинать темы
Вы не можете отвечать на сообщения
Вы не можете редактировать свои сообщения
Вы не можете удалять свои сообщения
Вы не можете голосовать в опросах
Вы не можете прикреплять файлы к сообщениям
Вы не можете скачивать файлы