Идущий в огне / Firewalker (Дж. Ли Томпсон) [1986 г., Боевик, комедия, приключения, BDRip 1080p]

Ответить на тему
 
Автор
Сообщение

renta23 ®

Пол:

Стаж: 6 лет 7 месяцев

Сообщений: 42

Репутация: 39 [+] [-]

Откуда: Брянск

Пост 30-Сен-2014 16:48

[Цитировать] 

Идущий в огне
Firewalker
---Год выпуска: 1986
Страна: США
Жанр: Боевик, комедия, приключения
Продолжительность: 01:45:05---Перевод: Профессиональный (Двухголосый закадровый)
Перевод: Авторский (Одноголосый закадровый) x2 - Гаврилов, Дольский
Перевод: Профессиональный (Многоголосый закадровый) - ICTV, Украина
Режиссер: Дж. Ли Томпсон
В ролях: Чак Норрис, Луис Госсет мл., Мелоди Андерсон, Уилл Сэмпсон, Сонни Лэндэм, Джон Рис-Дэвис, Йен Эберкромби, Ричард Ли-Сун, Сайде Сильвия Гутьеррес, Альваро Карканьо--Описание: У Патриции Гудвин есть карта, которая может привести к золотому кладу ацтеков. Но в одиночку хрупкой женщине с такой миссией не справиться! Поэтому она нанимает двух дюжих авантюристов, готовых за золотые посулы пройти вместе с ней сквозь огонь и воду. Это Макс и его приятель Лео. Троица охотников за древностями отправляется в путь, который будет полон и опасностей, и препятствий, и смешных моментов! Если их дерзкий план будет осуществлен, трое друзей вернутся домой богачами!- -Тип релиза: BDRip
Контейнер: MKV
Видео кодек: H264 (AVC)
Аудио кодек: AC3 (Dolby Digital)
Видео: MPEG4 Video (H264), 1920x1040, 59.94fps, 11.0 Mbps
Аудио: Русский - Dolby AC3, 48000 Hz, 2ch, 192 kbps - Двухголосый
Аудио: Русский - Dolby AC3, 48000 Hz, 2ch, 192 kbps - Одноголосый, Гаврилов
Аудио: Русский - Dolby AC3, 48000 Hz, 2ch, 192 kbps - Одноголосый, Дольский
Аудио: Украинский - Dolby AC3, 48000 Hz, 2ch, 192 kbps - Многоголосый, ICTV - Украина
Аудио: Английский - Dolby AC3, 48000 Hz, 6ch, 448 kbps - Английский
Субтитры: Английские
--Сэмпл

MediaInfo:

General
Unique ID : 197578309802982982938947229889467499128 (0x94A432C52BE75626B97F35D1CE7FC278)
Complete name : F:Torrent 21986.Идущий.renta23.mkv
Format : Matroska
Format version : Version 4 / Version 2
File size : 8.97 GiB
Duration : 1h 45mn
Overall bit rate : 12.2 Mbps
Encoded date : UTC 2014-09-29 17:20:57
Writing application : mkvmerge v7.1.0 ('Good Love') 32bit built on Jul 27 2014 12:59:18
Writing library : libebml v1.3.0 + libmatroska v1.4.1
DURATION : 01:45:05.312000000
NUMBER_OF_FRAMES : 197041
NUMBER_OF_BYTES : 353097472
_STATISTICS_WRITING_APP : mkvmerge v7.1.0 ('Good Love') 32bit built on Jul 27 2014 12:59:18
_STATISTICS_WRITING_DATE_UTC : 2014-09-29 17:20:57
_STATISTICS_TAGS : BPS DURATION NUMBER_OF_FRAMES NUMBER_OF_BYTES
Video
ID : 1
Format : AVC
Format/Info : Advanced Video Codec
Format profile : High@L4.1
Format settings, CABAC : Yes
Format settings, ReFrames : 3 frames
Codec ID : V_MPEG4/ISO/AVC
Duration : 1h 45mn
Bit rate : 11.0 Mbps
Width : 1 920 pixels
Height : 1 040 pixels
Display aspect ratio : 1.85:1
Frame rate mode : Constant
Frame rate : 59.940 fps
Color space : YUV
Chroma subsampling : 4:2:0
Bit depth : 8 bits
Scan type : Progressive
Bits/(Pixel*Frame) : 0.092
Stream size : 7.90 GiB (88%)
Title : Идущий в огне / Firewalker (1986) / renta23
Writing library : x264 core 125 r2208 d9d2288
Encoding settings : cabac=1 / ref=4 / deblock=1:-1:-1 / analyse=0x3:0x133 / me=umh / subme=11 / psy=1 / psy_rd=1.15:0.25 / mixed_ref=1 / me_range=24 / chroma_me=1 / trellis=2 / 8x8dct=1 / cqm=0 / deadzone=21,11 / fast_pskip=0 / chroma_qp_offset=-4 / threads=12 / lookahead_threads=2 / sliced_threads=0 / nr=0 / decimate=1 / interlaced=0 / bluray_compat=0 / constrained_intra=0 / bframes=6 / b_pyramid=1 / b_adapt=2 / b_bias=0 / direct=3 / weightb=1 / open_gop=0 / weightp=2 / keyint=250 / keyint_min=25 / scenecut=40 / intra_refresh=0 / rc_lookahead=50 / rc=2pass / mbtree=1 / bitrate=11000 / ratetol=1.0 / qcomp=0.60 / qpmin=0 / qpmax=69 / qpstep=4 / cplxblur=20.0 / qblur=0.5 / ip_ratio=1.40 / aq=2:1.00
Language : English
Default : Yes
Forced : No
Audio #1
ID : 2
Format : AC-3
Format/Info : Audio Coding 3
Mode extension : CM (complete main)
Format settings, Endianness : Big
Codec ID : A_AC3
Duration : 1h 45mn
Bit rate mode : Constant
Bit rate : 192 Kbps
Channel(s) : 2 channels
Channel positions : Front: L R
Sampling rate : 48.0 KHz
Bit depth : 16 bits
Compression mode : Lossy
Stream size : 144 MiB (2%)
Title : Двухголосый
Language : Russian
Default : Yes
Forced : No
Audio #2
ID : 3
Format : AC-3
Format/Info : Audio Coding 3
Mode extension : CM (complete main)
Format settings, Endianness : Big
Codec ID : A_AC3
Duration : 1h 45mn
Bit rate mode : Constant
Bit rate : 192 Kbps
Channel(s) : 2 channels
Channel positions : Front: L R
Sampling rate : 48.0 KHz
Bit depth : 16 bits
Compression mode : Lossy
Stream size : 144 MiB (2%)
Title : Одноголосый, Гаврилов
Language : Russian
Default : No
Forced : No
Audio #3
ID : 4
Format : AC-3
Format/Info : Audio Coding 3
Mode extension : CM (complete main)
Format settings, Endianness : Big
Codec ID : A_AC3
Duration : 1h 45mn
Bit rate mode : Constant
Bit rate : 192 Kbps
Channel(s) : 2 channels
Channel positions : Front: L R
Sampling rate : 48.0 KHz
Bit depth : 16 bits
Compression mode : Lossy
Stream size : 144 MiB (2%)
Title : Одноголосый, Дольский
Language : Russian
Default : No
Forced : No
Audio #4
ID : 5
Format : AC-3
Format/Info : Audio Coding 3
Mode extension : CM (complete main)
Format settings, Endianness : Big
Codec ID : A_AC3
Duration : 1h 45mn
Bit rate mode : Constant
Bit rate : 192 Kbps
Channel(s) : 2 channels
Channel positions : Front: L R
Sampling rate : 48.0 KHz
Bit depth : 16 bits
Compression mode : Lossy
Stream size : 144 MiB (2%)
Title : Многоголосый, ICTV - Украина
Language : Ukrainian
Default : No
Forced : No
Audio #5
ID : 6
Format : AC-3
Format/Info : Audio Coding 3
Mode extension : CM (complete main)
Format settings, Endianness : Big
Codec ID : A_AC3
Duration : 1h 45mn
Bit rate mode : Constant
Bit rate : 448 Kbps
Channel(s) : 6 channels
Channel positions : Front: L C R, Side: L R, LFE
Sampling rate : 48.0 KHz
Bit depth : 16 bits
Compression mode : Lossy
Stream size : 337 MiB (4%)
Title : Английский
Language : English
Default : No
Forced : No
Text
ID : 7
Format : PGS
Muxing mode : zlib
Codec ID : S_HDMV/PGS
Codec ID/Info : The same subtitle format used on BDs/HD-DVDs
Language : English
Default : Yes
Forced : No
Menu
00:00:00.000 : en:Chapter 01
00:06:38.272 : en:Chapter 02
00:20:40.822 : en:Chapter 03
00:26:44.978 : en:Chapter 04
00:36:07.707 : en:Chapter 05
00:46:44.802 : en:Chapter 06
00:55:07.762 : en:Chapter 07
01:01:37.735 : en:Chapter 08
01:10:50.829 : en:Chapter 09
01:18:29.705 : en:Chapter 10
01:31:31.444 : en:Chapter 11
01:42:19.925 : en:Chapter 12
01:45:04.548 : en:Chapter 13

Скриншоты:

-
[Торрент-статистика]
[Профиль]  [ЛС] 
Показать сообщения:    
Ответить на тему

Текущее время: Сегодня 09:48

Часовой пояс: GMT + 4



Вы не можете начинать темы
Вы не можете отвечать на сообщения
Вы не можете редактировать свои сообщения
Вы не можете удалять свои сообщения
Вы не можете голосовать в опросах
Вы не можете прикреплять файлы к сообщениям
Вы не можете скачивать файлы