Трансформеры: Эпоха истребления / Transformers​: Age of Extinction (Майкл Бэй / Michael Bay) [2014 г., фантастика, боевик, приключения, BDRip 720p] [Чистый звук]

Ответить на тему
 
Автор
Сообщение

ArtZak ®

Пол:

Стаж: 9 лет 5 месяцев

Сообщений: 2829

Репутация: 1366 [+] [-]

Откуда: Россия

Пост 22-Сен-2014 11:19

[Цитировать] 

-Трансформеры: Эпоха истребления / Transformers: Age of Extinction
«Сражаться вместе... Или погибнуть вместе»
- Год выпуска: 2014
Страна: США, Китай / Di Bonaventura Pictures, Hasbro Inc., Ian Bryce Productions, Paramount Pictures, Tom DeSanto/Don Murphy Production
Жанр: фантастика, боевик, приключения
Продолжительность: 02:45:07
Перевод: Профессиональный (полное дублирование) [Чистый звук]
Субтитры: английские
Навигация по главам: Есть
Режиссер: Майкл Бэй / Michael Bay- -В ролях:
Марк Райан, Фрэнк Уэлкер, Джон Ди Маджио, Кен Ватанабе, Джон Гудман, Питер Каллен, София Майлс, Ли Бинбин, ТиДжей Миллер, Титус Уэлливер, Келси Грэммер, Стэнли Туччи, Джек Рейнор, Марк Уолберг, Никола Пельтц и др.
Описание:
События фильма разворачиваются на осколках человеческой цивилизации, когда все Автоботы и Дисептиконы уже покинули нашу планету. Группа учёных при поддержке влиятельных бизнесменов старается вывести земные технологии на новый уровень, извлекая урок из предыдущего нападения на планету. Но в это же время древние могущественные силы видят Землю своей следующей мишенью.
Автор рипа:

Качество: BDRip 720p
Формат: MKV
Видео: AVC, 1280x534 (2.35:1), 23.976 fps, 7 690 Kbps (0.469 bit/pixel)
Аудио: AC-3, 48.0 KHz, 2 ch, 384 Kbps, CBR (Russian)

MI

Код:
General
Unique ID                                : 218568442028374494327986199326534797020 (0xA46EC0307FFFBB9DEF1E0473775206DC)
Complete name                            : C:\Downloads\Transformers Age of Extinction.2014.720p.BluRay.x264-LEONARDO_[scarabey.org].mkv
Format                                   : Matroska
Format version                           : Version 2
File size                                : 9.50 GiB
Duration                                 : 2h 45mn
Overall bit rate                         : 8 238 Kbps
Movie name                               : Release by Leonardo for Scarabey.org
Encoded date                             : UTC 2014-09-21 12:29:06
Writing application                      : mkvmerge v5.0.1 ('Es ist Sommer') built on Oct 23 2011 00:46:40
Writing library                          : libebml v1.2.2 + libmatroska v1.3.0
Attachment                               : Yes
Video
ID                                       : 1
Format                                   : AVC
Format/Info                              : Advanced Video Codec
Format profile                           : High@L4.1
Format settings, CABAC                   : Yes
Format settings, ReFrames                : 8 frames
Codec ID                                 : V_MPEG4/ISO/AVC
Duration                                 : 2h 45mn
Bit rate                                 : 7 690 Kbps
Width                                    : 1 280 pixels
Height                                   : 534 pixels
Display aspect ratio                     : 2.40:1
Frame rate mode                          : Constant
Frame rate                               : 23.976 fps
Color space                              : YUV
Chroma subsampling                       : 4:2:0
Bit depth                                : 8 bits
Scan type                                : Progressive
Bits/(Pixel*Frame)                       : 0.469
Stream size                              : 8.87 GiB (93%)
Writing library                          : x264 core 125 r2208 d9d2288
Encoding settings                        : cabac=1 / ref=8 / deblock=1:-3:-3 / analyse=0x3:0x133 / me=umh / subme=11 / psy=1 / psy_rd=1.00:0.00 / mixed_ref=1 / me_range=32 / chroma_me=1 / trellis=2 / 8x8dct=1 / cqm=0 / deadzone=21,11 / fast_pskip=0 / chroma_qp_offset=-2 / threads=12 / lookahead_threads=2 / sliced_threads=0 / nr=0 / decimate=1 / interlaced=0 / bluray_compat=0 / constrained_intra=0 / bframes=8 / b_pyramid=2 / b_adapt=2 / b_bias=0 / direct=1 / weightb=1 / open_gop=0 / weightp=2 / keyint=250 / keyint_min=23 / scenecut=40 / intra_refresh=0 / rc=crf / mbtree=0 / crf=18.0 / qcomp=0.60 / qpmin=0 / qpmax=69 / qpstep=4 / ip_ratio=1.10 / pb_ratio=1.10 / aq=1:1.00
Language                                 : English
Default                                  : Yes
Forced                                   : No
Audio
ID                                       : 2
Format                                   : AC-3
Format/Info                              : Audio Coding 3
Mode extension                           : CM (complete main)
Format settings, Endianness              : Big
Codec ID                                 : A_AC3
Duration                                 : 2h 45mn
Bit rate mode                            : Constant
Bit rate                                 : 384 Kbps
Channel count                            : 2 channels
Channel positions                        : Front: L R
Sampling rate                            : 48.0 KHz
Bit depth                                : 16 bits
Compression mode                         : Lossy
Stream size                              : 454 MiB (5%)
Language                                 : Russian
Default                                  : Yes
Forced                                   : Yes
Text
ID                                       : 3
Format                                   : UTF-8
Codec ID                                 : S_TEXT/UTF8
Codec ID/Info                            : UTF-8 Plain Text
Title                                    : Full
Language                                 : English
Default                                  : No
Forced                                   : No
Menu
00:00:00.000                             : en:Chapter 01
00:06:51.577                             : en:Chapter 02
00:14:33.580                             : en:Chapter 03
00:21:37.462                             : en:Chapter 04
00:30:13.393                             : en:Chapter 05
00:38:45.989                             : en:Chapter 06
00:46:08.056                             : en:Chapter 07
00:51:39.513                             : en:Chapter 08
00:59:09.337                             : en:Chapter 09
01:07:48.647                             : en:Chapter 10
01:15:14.551                             : en:Chapter 11
01:23:25.291                             : en:Chapter 12
01:29:14.724                             : en:Chapter 13
01:37:16.956                             : en:Chapter 14
01:44:35.435                             : en:Chapter 15
01:51:25.053                             : en:Chapter 16
01:57:47.935                             : en:Chapter 17
02:04:48.480                             : en:Chapter 18
02:12:35.864                             : en:Chapter 19
02:21:04.205                             : en:Chapter 20
02:28:48.669                             : en:Chapter 21
02:37:09.628                             : en:Chapter 22
02:45:07.063                             : en:Chapter 23

Скриншоты

[Торрент-статистика]
[Профиль]  [ЛС] 
Показать сообщения:    
Ответить на тему

Текущее время: Сегодня 07:05

Часовой пояс: GMT + 4



Вы не можете начинать темы
Вы не можете отвечать на сообщения
Вы не можете редактировать свои сообщения
Вы не можете удалять свои сообщения
Вы не можете голосовать в опросах
Вы не можете прикреплять файлы к сообщениям
Вы не можете скачивать файлы