Город грехов 2: Женщина, ради которой стоит убивать / Sin City: A Dame to Kill For (Фрэнк Миллер, Роберт Родригес) [2014 г., боевик, триллер, криминал, WEBRip 720p] DUB Чистый звук

Ответить на тему
 
Автор
Сообщение

awk05 ®

Пол:

Стаж: 4 года 5 месяцев

Сообщений: 1352

Репутация: 275 [+] [-]

Откуда: Западная Украина Ривне

Пост 21-Сен-2014 17:30

[Цитировать] 

--Город грехов 2: Женщина, ради которой стоит убивать
Sin City: A Dame to Kill For
«There is no justice without sin»-- Год выхода: 2014
Жанр: боевик, триллер, криминал
Выпущено: США
Продолжительность: 01:34:12
Озвучивание: Дублированное [чистый звук]
Субтитры: отсутствуют--Режиссер: Фрэнк Миллер, Роберт Родригес--В ролях: Микки Рурк (Marv), Джессика Альба (Nancy), Джош Бролин (Dwight), Джозеф Гордон-Левитт (Johnny), Розарио Доусон (Gail), Брюс Уиллис (Hartigan), Ева Грин (Ava), Пауэрс Бут (Senator Roark), Деннис Хейсбёрт (Manute), Рэй Лиотта (Joey), Кристофер Мелони (Mort), Джереми Пивен (Bob), и др.--Описание: В темных переулках Города грехов Дуайт планирует жестоко отомстить женщине по имени Ева Лорд, которая его предала. Ева Лорд вышла замуж за богатого человека и ради получения наследства решила расправиться с ним руками своего старого любовника Дуайта Маккарти. Тот ушёл из старого города и пытается встать на честный путь, но одержимость Евой Лорд ломает все его планы и швыряет в объятия бездны…--Качество видео: WEBRip 720p
Формат видео: MKV
Видео кодек: AVC (High@L4.1)
Аудио кодек: AC-3
Видео: AVC, 1280x688 (1.860), 25.000 fps, 3 000 Kbps (0.136 bit/pixel)
Аудио: AC-3, 48.0 KHz, 2 ch, 192 Kbps, CBR, 16 bits [Русский] -- --

Знаете ли Вы, что...

  • Фильм снят по мотивам графических романов Фрэнка Миллера «Дама, ради которой можно убить» (A Dame to Kill For) и «Просто еще одна субботняя ночь» (Just Another Saturday Night).
  • Весь фильм был снят на зеленом фоне. При этом из реквизита на съемочной площадке использовались только дверные проемы, ступени лестниц, а также такие основные предметы, как столы и стулья. Все остальное было создано при помощи компьютерной графики. А чтобы актеры смогли почувствовать, где они находятся, им перед съемками демонстрировали 3D-модели этих мест.
  • Главная роль первоначально предлагалась Джонни Деппу, но он отказался из-за несогласованности расписаний съемок. Позже на его место пригласили Джозефа Гордона-Левитта, который согласился, несмотря на предложения от таких проектов, как «Стражи Галактики» (2014) и «Годзилла» (2014).
  • За семь лет перерыва между выходом первого фильма и началом основных съемок второго Бриттани Мерфи и Майкл Кларк Дункан скончались, в результате Роберту Родригесу пришлось искать других актеров на их роли. Из-за беременности Девон Аоки вместо нее на роль Михо взяли Джейми Чунг. А Джереми Пивен был взят на роль Майкла Мэдсена.
  • Сальма Хайек, Роуз МакГоун, Анджелина Джоли, Рейчел Вайс, Мишель Уильямс, Хелена Бонем Картер, Скарлетт Йоханссон, Энн Хэтэуэй и Дженнифер Лоуренс рассматривались на роль Эвы, но в итоге роль досталась Еве Грин.
  • Ева Грин и Мартон Чокаш сыграли супружескую пару. В реальной жизни у них были отношения в период с 2005 по 2009 год.
  • Плакат фильма, на котором изображена актриса Ева Грин, был запрещен в США к распространению. По мнению цензоров из Кинематографической ассоциации Америки, обнаженная девушка на постере выглядит «излишне сексуально».
  • Изначально Джозеф Гордон-Левитт не одобрял участие Леди Гаги в съемках фильма. Но только отыграв первый совместный дубль он был ошеломлен ее театральным талантом, по словам Джозефа она идеально раскрыла все черты своего персонажа. Впоследствии актеры стали хорошими друзьями и неоднократно сотрудничали вновь.
  • Роберт Родригес настоял на том, чтобы фильм сразу снимали в 3D, а не конвертировали в этот формат на стадии пост-продакшна. Имея опыт работы с камерами Alexa, он прекрасно понимал все возможности, которые они дают.
  • Дуйата МакКарти, которого в фильме «Город грехов» (2005) сыграл Клайв Оуэн, теперь играет Джош Бролин. По сюжету Бролин играет МакКарти в период до пластической операции по изменению лица. Об этой операции Шелли (Бриттани Мерфи) упоминала в первом фильме.

Кадры из фильма

Тех. данные (MI)

Код:
Общее
Уникальный идентификатор                 : 211445325904601451560180741798583530534 (0x9F12E3732A6ACC9CA30442322442F426)
Полное имя                               : E:\тест\G0r0d.GrEh0v.2_2014.D.WEBRip.720p.mkv
Формат                                   : Matroska
Версия формата                           : Version 2
Размер файла                             : 2,10 Гбайт
Продолжительность                        : 1 ч. 34 м.
Общий поток                              : 3193 Кбит/сек
Дата кодирования                         : UTC 2014-09-21 01:45:10
Программа кодирования                    : mkvmerge v7.2.0 ('On Every Street') 32bit built on Sep 13 2014 15:42:11
Библиотека кодирования                   : libebml v1.3.0 + libmatroska v1.4.1
DURATION                                 : 01:34:12.064000000
NUMBER_OF_FRAMES                         : 176627
NUMBER_OF_BYTES                          : 135649536
_STATISTICS_WRITING_APP                  : mkvmerge v7.2.0 ('On Every Street') 32bit built on Sep 13 2014 15:42:11
_STATISTICS_WRITING_DATE_UTC             : 2014-09-21 01:45:10
_STATISTICS_TAGS                         : BPS DURATION NUMBER_OF_FRAMES NUMBER_OF_BYTES
Видео
Идентификатор                            : 1
Формат                                   : AVC
Формат/Информация                        : Advanced Video Codec
Профиль формата                          : High@L4.1
Параметр CABAC формата                   : Да
Параметр ReFrames формата                : 4 кадра
Идентификатор кодека                     : V_MPEG4/ISO/AVC
Продолжительность                        : 1 ч. 34 м.
Битрейт                                  : 3000 Кбит/сек
Ширина                                   : 1280 пикселей
Высота                                   : 688 пикселей
Соотношение сторон                       : 1,85:1
Режим частоты кадров                     : Постоянный
Частота кадров                           : 25,000 кадров/сек
Цветовое пространство                    : YUV
Субдискретизация насыщенности            : 4:2:0
Битовая глубина                          : 8 бит
Тип развёртки                            : Прогрессивная
Бит/(Пиксели*Кадры)                      : 0.136
Размер потока                            : 1,93 Гбайт (92%)
Библиотека кодирования                   : x264 core 142 r2431+42 c69a006 tMod [8-bit@all X86_64]
Настройки программы                      : cabac=1 / ref=4 / deblock=1:0:0 / analyse=0x3:0x133 / me=dia / subme=2 / psy=1 / fade_compensate=0.00 / psy_rd=1.00:0.00 / mixed_ref=1 / me_range=16 / chroma_me=1 / trellis=2 / 8x8dct=1 / cqm=0 / deadzone=21,11 / fast_pskip=0 / chroma_qp_offset=-2 / threads=12 / lookahead_threads=5 / sliced_threads=0 / nr=0 / decimate=1 / interlaced=0 / bluray_compat=0 / constrained_intra=0 / fgo=0 / bframes=2 / b_pyramid=2 / b_adapt=2 / b_bias=0 / direct=3 / weightb=1 / open_gop=0 / weightp=2 / keyint=240 / keyint_min=24 / scenecut=40 / intra_refresh=0 / rc=2pass / mbtree=0 / bitrate=3000 / ratetol=1.0 / qcomp=0.60 / qpmin=0:0:0 / qpmax=69:69:69 / qpstep=4 / cplxblur=20.0 / qblur=0.5 / ip_ratio=1.40 / pb_ratio=1.30 / aq=1:1.00 / aq-sensitivity=10.00 / aq-factor=1.00:1.00:1.00 / aq2=0 / aq3=0
Default                                  : Да
Forced                                   : Нет
Аудио
Идентификатор                            : 2
Формат                                   : AC-3
Формат/Информация                        : Audio Coding 3
Расширение режима                        : CM (complete main)
Параметр Endianness формата              : Big
Идентификатор кодека                     : A_AC3
Продолжительность                        : 1 ч. 34 м.
Вид битрейта                             : Постоянный
Битрейт                                  : 192 Кбит/сек
Каналы                                   : 2 канала
Расположение каналов                     : Front: L R
Частота                                  : 48,0 КГц
Битовая глубина                          : 16 бит
Метод сжатия                             : С потерями
Размер потока                            : 129 Мбайт (6%)
Default                                  : Да
Forced                                   : Нет

_________________
[Торрент-статистика]
[Профиль]  [ЛС] 
Показать сообщения:    
Ответить на тему

Текущее время: Сегодня 00:29

Часовой пояс: GMT + 4



Вы не можете начинать темы
Вы не можете отвечать на сообщения
Вы не можете редактировать свои сообщения
Вы не можете удалять свои сообщения
Вы не можете голосовать в опросах
Вы не можете прикреплять файлы к сообщениям
Вы не можете скачивать файлы