Дом Хемингуэй / Dom Hemingway (Ричард Шепард / Richard Shepard)[2013 г., драма, комедия, криминал, BDRip] лицензия

Ответить на тему
 
Автор
Сообщение

awk05 ®

Пол:

Стаж: 8 лет 9 месяцев

Сообщений: 1334

Репутация: 278 [+] [-]

Откуда: Западная Украина Ривне

Пост 18-Сен-2014 16:24

[Цитировать] 

--Дом Хемингуэй / Dom Hemingway«Jude Law is Dom Hemingway and you're not»-- Страна: Великобритания
Жанр: драма, комедия, криминал
Год выпуска: 2013
Продолжительность: 01:33:47
Перевод: Профессиональный (многоголосый закадровый)+ авторский одноголосый (Есарев)
Cубтитры: русские (SDH), английские (SDH)--Режиссер: Ричард Шепард / Richard Shepard--В ролях: Джуд Лоу (Dom Hemingway), Ричард Э. Грант (Dickie Black), Демиан Бишир (Mr. Fontaine), Эмилия Кларк (Evelyn), Ричард Грэхэм (Prison Guard), Джордж Суини (Man Outside Pub), Марк Уингетт (Man Outside Pub 2), Ник Раггетт (Sandy Butterfield), Гленн Хирст (Barman), Джини Голд (Barmaid), Мадалина Диана Генея (Paolina), и др.--Описание: Главный герой - виртуозный взломщик сейфов, отличающийся весёлым нравом и цинизмом, но при этом представляющий реальную угрозу. Проведя 12 лет в тюрьме и выйдя на свободу, он намерен востребовать должок, который причитается ему за то, что он держал язык за зубами.--Качество видео: BDRip 720p
Формат видео: MKV
Видео кодек: AVC (High@L4.1)
Аудио кодек: AC-3, DTS
Видео: AVC, 1280x544 (2.35:1), 24.000 fps, 4 504 Kbps (0.270 bit/pixel)
Аудио 1: AC-3, 48.0 KHz, 2 ch, 192 Kbps, CBR, 16 bits [Русский]
Аудио 2: DTS, 48.0 KHz, 6 ch, 755 Kbps, CBR, 24 bits [Русский]
Аудио 3: DTS, 48.0 KHz, 6 ch, 755 Kbps, CBR, 24 bits [Английский] -- --

Знаете ли Вы, что...

  • Для своей роли Джуд Лоу набрал около 14 килограммов веса.

Кадры из фильма

Тех. данные (MI)

Код:
Общее
Уникальный идентификатор                 : 254892649794674124248522540947769723125 (0xBFC289E73826E7E8AEF71038E4C908F5)
Полное имя                               : E:\тест\Dom.Heminguey.2013.BDRip.720p.mkv
Формат                                   : Matroska
Версия формата                           : Version 4 / Version 2
Размер файла                             : 4,15 Гбайт
Продолжительность                        : 1 ч. 33 м.
Общий поток                              : 6331 Кбит/сек
Дата кодирования                         : UTC 2014-09-16 18:15:54
Программа кодирования                    : mkvmerge v7.2.0 ('On Every Street') 64bit built on Sep 13 2014 15:52:10
Библиотека кодирования                   : libebml v1.3.0 + libmatroska v1.4.1
Видео
Идентификатор                            : 1
Формат                                   : AVC
Формат/Информация                        : Advanced Video Codec
Профиль формата                          : High@L4.1
Параметр CABAC формата                   : Да
Параметр ReFrames формата                : 12 кадров
Идентификатор кодека                     : V_MPEG4/ISO/AVC
Продолжительность                        : 1 ч. 33 м.
Битрейт                                  : 4491 Кбит/сек
Ширина                                   : 1280 пикселей
Высота                                   : 544 пикселя
Соотношение сторон                       : 2,35:1
Режим частоты кадров                     : Постоянный
Частота кадров                           : 24,000 кадра/сек
Цветовое пространство                    : YUV
Субдискретизация насыщенности            : 4:2:0
Битовая глубина                          : 8 бит
Тип развёртки                            : Прогрессивная
Бит/(Пиксели*Кадры)                      : 0.269
Размер потока                            : 2,94 Гбайт (71%)
Библиотека кодирования                   : x264 core 135 r2345 f0c1c53
Настройки программы                      : cabac=1 / ref=12 / deblock=1:-3:-3 / analyse=0x3:0x133 / me=tesa / subme=10 / psy=1 / psy_rd=1.00:0.00 / mixed_ref=1 / me_range=16 / chroma_me=1 / trellis=2 / 8x8dct=1 / cqm=0 / deadzone=21,11 / fast_pskip=0 / chroma_qp_offset=-2 / threads=12 / lookahead_threads=2 / sliced_threads=0 / nr=0 / decimate=1 / interlaced=0 / bluray_compat=0 / constrained_intra=0 / bframes=9 / b_pyramid=2 / b_adapt=2 / b_bias=0 / direct=3 / weightb=1 / open_gop=0 / weightp=2 / keyint=250 / keyint_min=24 / scenecut=40 / intra_refresh=0 / rc=crf / mbtree=0 / crf=16.3 / qcomp=0.75 / qpmin=0 / qpmax=69 / qpstep=4 / ip_ratio=1.40 / pb_ratio=1.30 / aq=1:0.65
Язык                                     : English
Default                                  : Да
Forced                                   : Нет
Коэффициенты матрицы                     : BT.709
Аудио #1
Идентификатор                            : 2
Формат                                   : AC-3
Формат/Информация                        : Audio Coding 3
Расширение режима                        : CM (complete main)
Параметр Endianness формата              : Big
Идентификатор кодека                     : A_AC3
Продолжительность                        : 1 ч. 33 м.
Вид битрейта                             : Постоянный
Битрейт                                  : 192 Кбит/сек
Каналы                                   : 2 канала
Расположение каналов                     : Front: L R
Частота                                  : 48,0 КГц
Битовая глубина                          : 16 бит
Метод сжатия                             : С потерями
Размер потока                            : 129 Мбайт (3%)
Язык                                     : Russian
Default                                  : Да
Forced                                   : Нет
Аудио #2
Идентификатор                            : 3
Формат                                   : DTS
Формат/Информация                        : Digital Theater Systems
Режим                                    : 16
Параметр Endianness формата              : Big
Идентификатор кодека                     : A_DTS
Продолжительность                        : 1 ч. 33 м.
Вид битрейта                             : Постоянный
Битрейт                                  : 755 Кбит/сек
Каналы                                   : 6 каналов
Расположение каналов                     : Front: L C R, Side: L R, LFE
Частота                                  : 48,0 КГц
Битовая глубина                          : 24 бит
Метод сжатия                             : С потерями
Размер потока                            : 506 Мбайт (12%)
Заголовок                                : Esarev
Язык                                     : Russian
Default                                  : Нет
Forced                                   : Нет
Аудио #3
Идентификатор                            : 4
Формат                                   : DTS
Формат/Информация                        : Digital Theater Systems
Режим                                    : 16
Параметр Endianness формата              : Big
Идентификатор кодека                     : A_DTS
Продолжительность                        : 1 ч. 33 м.
Вид битрейта                             : Постоянный
Битрейт                                  : 768 Кбит/сек
Каналы                                   : 6 каналов
Расположение каналов                     : Front: L C R, Side: L R, LFE
Частота                                  : 48,0 КГц
Битовая глубина                          : 24 бит
Метод сжатия                             : С потерями
Задержка видео                           : 11 мс.
Размер потока                            : 515 Мбайт (12%)
Язык                                     : English
Default                                  : Нет
Forced                                   : Нет
Текст #1
Идентификатор                            : 5
Формат                                   : UTF-8
Идентификатор кодека                     : S_TEXT/UTF8
Идентификатор кодека/Информация          : UTF-8 Plain Text
Заголовок                                : SDH
Язык                                     : Russian
Default                                  : Нет
Forced                                   : Нет
Текст #2
Идентификатор                            : 6
Формат                                   : UTF-8
Идентификатор кодека                     : S_TEXT/UTF8
Идентификатор кодека/Информация          : UTF-8 Plain Text
Заголовок                                : SDH
Язык                                     : English
Default                                  : Нет
Forced                                   : Нет
Меню
00:00:00.000                             : en:00:00:00.000
00:09:03.000                             : en:00:09:03.000
00:18:11.083                             : en:00:18:11.083
00:25:12.000                             : en:00:25:12.000
00:33:03.917                             : en:00:33:03.917
00:40:41.667                             : en:00:40:41.667
00:49:16.000                             : en:00:49:16.000
00:57:46.167                             : en:00:57:46.167
01:05:01.500                             : en:01:05:01.500
01:14:03.292                             : en:01:14:03.292
01:18:30.250                             : en:01:18:30.250
01:24:48.958                             : en:01:24:48.958

_________________
[Торрент-статистика]
[Профиль]  [ЛС] 
Показать сообщения:    
Ответить на тему

Текущее время: Сегодня 10:38

Часовой пояс: GMT + 4



Вы не можете начинать темы
Вы не можете отвечать на сообщения
Вы не можете редактировать свои сообщения
Вы не можете удалять свои сообщения
Вы не можете голосовать в опросах
Вы не можете прикреплять файлы к сообщениям
Вы не можете скачивать файлы