Машина / The Machine (Карадог В. Джеймс / Caradog W. James) [2013 г., фантастика, триллер, BDRip 720p] лицензия

Ответить на тему
 
Автор
Сообщение

awk05 ®

Пол:

Стаж: 4 года 5 месяцев

Сообщений: 1352

Репутация: 275 [+] [-]

Откуда: Западная Украина Ривне

Пост 08-Сен-2014 14:11

[Цитировать] 

--Машина / The Machine «They rise. We fall»-- Страна: Великобритания / Red & Black Films
Жанр: фантастика, триллер
Год выпуска: 2013
Продолжительность: 01:30:28
Перевод: Профессиональный (многоголосый)
Cубтитры: русские, английские--Режиссер: Карадог В. Джеймс / Caradog W. James--В ролях: Кейти Лотц (Ava), Тоби Стивенс (Vincent), Сэм Хэзелдайн (James), Дэнис Лосон (Thomson), Pooneh Hajimohammadi (Suri), Сиван Моррис (Lucy), Ли Николас Харрис (Implant Soldier Harris), Бен МакГрегор (Implant Soldier Ben), Хелен Гриффин (Mrs. Dawson), Суле Рими (Dr. Giwa-Amu), Джонатан Бирн (Tim), Стюарт Мэтьюз (Soldier), Джон-Пол Маклеод (Paul Dawson), и др.--Описание: Из-за нестабильной обстановки в мире британское министерство обороны нуждается в получении нового оружия. Ведущий ученый Винсент МакКарти предоставляет свое решение этого вопроса, «Машина» — андроид с непревзойденными физическими способностями. Когда программная ошибка заставляет опытный образец разрушать его лабораторию, МакКарти вербует эксперта по искусственному интеллекту Ава, чтобы помочь ему использовать полный потенциал машины-убийцы.--Качество видео: BDRip 720p
Формат видео: MKV
Видео кодек: AVC (High@L4.1)
Аудио кодек: AC-3
Видео: AVC, 1280x720 (16:9), 23.976 fps, 5 511 Kbps (0.249 bit/pixel)
Аудио 1: AC-3, 48.0 KHz, 6 ch, 448 Kbps, CBR, 16 bits [Русский]
Аудио 2: AC-3, 48.0 KHz, 6 ch, 768 Kbps, CBR, 24 bits [Английский] -- --

Кадры из фильма



Тех. данные (MI)

Код:
Общее
Уникальный идентификатор                 : 180811765734172173737066445829561335646 (0x88071453111314109E080D4638D33F5E)
Полное имя                               : E:\тест\Mashina.2013.P.BDRip.720p.mkv
Формат                                   : Matroska
Версия формата                           : Version 4 / Version 2
Размер файла                             : 4,33 Гбайт
Продолжительность                        : 1 ч. 30 м.
Общий поток                              : 6849 Кбит/сек
Дата кодирования                         : UTC 2014-09-03 09:55:39
Программа кодирования                    : mkvmerge v7.1.0 ('Good Love') 64bit built on Jul 27 2014 13:06:55
Библиотека кодирования                   : libebml v1.3.0 + libmatroska v1.4.1
_STATISTICS_WRITING_APP                  : mkvmerge v7.1.0 ('Good Love') 64bit built on Jul 27 2014 13:06:55
_STATISTICS_WRITING_DATE_UTC             : 2014-09-03 09:55:39
_STATISTICS_TAGS                         : BPS DURATION NUMBER_OF_FRAMES NUMBER_OF_BYTES
DURATION                                 : 01:23:52.593000000
NUMBER_OF_FRAMES                         : 1070
NUMBER_OF_BYTES                          : 34941
Видео
Идентификатор                            : 1
Формат                                   : AVC
Формат/Информация                        : Advanced Video Codec
Профиль формата                          : High@L3.1
Параметр CABAC формата                   : Да
Параметр ReFrames формата                : 5 кадров
Идентификатор кодека                     : V_MPEG4/ISO/AVC
Продолжительность                        : 1 ч. 30 м.
Битрейт                                  : 5497 Кбит/сек
Ширина                                   : 1280 пикселей
Высота                                   : 720 пикселей
Соотношение сторон                       : 16:9
Режим частоты кадров                     : Постоянный
Частота кадров                           : 23,976 кадра/сек
Цветовое пространство                    : YUV
Субдискретизация насыщенности            : 4:2:0
Битовая глубина                          : 8 бит
Тип развёртки                            : Прогрессивная
Бит/(Пиксели*Кадры)                      : 0.249
Размер потока                            : 3,47 Гбайт (80%)
Язык                                     : English
Default                                  : Да
Forced                                   : Нет
DURATION                                 : 01:30:28.090000000
NUMBER_OF_FRAMES                         : 130144
NUMBER_OF_BYTES                          : 3820380144
_STATISTICS_WRITING_APP                  : mkvmerge v7.1.0 ('Good Love') 64bit built on Jul 27 2014 13:06:55
_STATISTICS_WRITING_DATE_UTC             : 2014-09-03 09:55:39
_STATISTICS_TAGS                         : BPS DURATION NUMBER_OF_FRAMES NUMBER_OF_BYTES
Аудио #1
Идентификатор                            : 2
Формат                                   : AC-3
Формат/Информация                        : Audio Coding 3
Расширение режима                        : CM (complete main)
Параметр Endianness формата              : Big
Идентификатор кодека                     : A_AC3
Продолжительность                        : 1 ч. 30 м.
Вид битрейта                             : Постоянный
Битрейт                                  : 448 Кбит/сек
Каналы                                   : 6 каналов
Расположение каналов                     : Front: L C R, Side: L R, LFE
Частота                                  : 48,0 КГц
Битовая глубина                          : 16 бит
Метод сжатия                             : С потерями
Размер потока                            : 290 Мбайт (7%)
Язык                                     : Russian
Default                                  : Да
Forced                                   : Нет
Аудио #2
Идентификатор                            : 3
Формат                                   : DTS
Формат/Информация                        : Digital Theater Systems
Режим                                    : 16
Параметр Endianness формата              : Big
Идентификатор кодека                     : A_DTS
Продолжительность                        : 1 ч. 30 м.
Вид битрейта                             : Постоянный
Битрейт                                  : 768 Кбит/сек
Каналы                                   : 6 каналов
Расположение каналов                     : Front: L C R, Side: L R, LFE
Частота                                  : 48,0 КГц
Битовая глубина                          : 24 бит
Метод сжатия                             : С потерями
Размер потока                            : 497 Мбайт (11%)
Язык                                     : English
Default                                  : Нет
Forced                                   : Нет
Текст #1
Идентификатор                            : 4
Формат                                   : UTF-8
Идентификатор кодека                     : S_TEXT/UTF8
Идентификатор кодека/Информация          : UTF-8 Plain Text
Язык                                     : Russian
Default                                  : Нет
Forced                                   : Нет
Текст #2
Идентификатор                            : 5
Формат                                   : UTF-8
Идентификатор кодека                     : S_TEXT/UTF8
Идентификатор кодека/Информация          : UTF-8 Plain Text
Язык                                     : English
Default                                  : Нет
Forced                                   : Нет
Меню
00:00:00.000                             : en:00:00:00.000
00:06:34.394                             : en:00:06:34.394
00:14:32.955                             : en:00:14:32.955
00:22:19.713                             : en:00:22:19.713
00:29:09.665                             : en:00:29:09.665
00:35:19.326                             : en:00:35:19.326
00:44:41.470                             : en:00:44:41.470
00:51:20.619                             : en:00:51:20.619
00:59:40.452                             : en:00:59:40.452
01:05:41.604                             : en:01:05:41.604
01:13:27.737                             : en:01:13:27.737
01:20:41.628                             : en:01:20:41.628

_________________
[Торрент-статистика]
[Профиль]  [ЛС] 
Показать сообщения:    
Ответить на тему

Текущее время: Сегодня 14:48

Часовой пояс: GMT + 4



Вы не можете начинать темы
Вы не можете отвечать на сообщения
Вы не можете редактировать свои сообщения
Вы не можете удалять свои сообщения
Вы не можете голосовать в опросах
Вы не можете прикреплять файлы к сообщениям
Вы не можете скачивать файлы