Разумное сомнение / Reasonable Doubt (Питер Хауит / Peter Howitt)[2014 г., триллер, криминал, BDRip 720p] MVO + AVO + Sub

Ответить на тему
 
Автор
Сообщение

awk05 ®

Пол:

Стаж: 8 лет 9 месяцев

Сообщений: 1334

Репутация: 278 [+] [-]

Откуда: Западная Украина Ривне

Пост 07-Сен-2014 02:01

[Цитировать] 

--Разумное сомнение / Reasonable Doubt«Proof is the burden»-- Страна: Канада, Германия
Год выпуска: 2014
Жанр: триллер, криминал
Продолжительность: 01:31:18
Перевод: Профессиональный (многоголосый закадровый) Позитив
Перевод: Авторский (одноголосый закадровый) М. Яроцкий
Субтитры: Русские, английские--Режиссер: Питер Хауит / Peter Howitt--Актеры: Доминик Купер (Mitch Brockden), Сэмюэл Л. Джексон (Clinton Davis), Глория Рубен (Det. Blake Kanon), Райан Роббинс (Jimmy Logan), Эрин Карплак (Rachel Brockden), Дилан Тейлор (Stuart Wilson), Дин Хардер (Terry Roberts), Карсон Нэттрасс (Officer Travis), Джон Б. Лоу (Judge G. Mckenna), Филипп Бреннинкмейер (DA Jones), Джессика Бёрлсон (Secretary), Келли Вольфман (Dr. Brown), и др.--Описание фильма: В центре главных событий оказывается человек, который по своей профессии является окружным прокурором. Его жизнь последние несколько лет практически никак не менялась. Все в ней шло своим чередом. Не было у мужчины никаких серьезных потрясений или же неразрешимых проблем. Но одним днем все сильно изменилось.
Главный герой кинокартины «Разумное сомнение» случайно стал участником опасной перестрелки. Из-за этого события у прокурора и появились неприятности. Суд выдвигает мужчине серьезное обвинение. Некогда беспроблемный и счастливый человек подозревается в убийстве. На самом деле главный герой не имел в данному делу никакого отношения. Но полицию этот факт ничуть не интересует.
Сотрудники правоохранительных органов нашли подозреваемого и сделали его крайним в совершенном преступлении. Окружной прокурор должен только своими силами попытаться избавить себя от тюремного срока за убийство, к которому даже не имеет отношения. Но сделать это нелегко, учитывая, что все говорит против него.--Качество видео: BDRip 720p
Формат видео: MKV
Видео кодек: AVC (High@L4.1)
Аудио кодек: AC-3
Видео: AVC, 1280x534 (2.35:1), 23.976 fps, 1 793 Kbps (0.109 bit/pixel)
Аудио 1: AC-3, 48.0 KHz, 2 ch, 224 Kbps, CBR, 16 bits [Русский]
Аудио 2: AC-3, 48.0 KHz, 6 ch, 384 Kbps, CBR, 16 bits [Русский]
Аудио 3: AC-3, 48.0 KHz, 6 ch, 448 Kbps, CBR, 16 bits [Английский] -- --

Знаете ли Вы, что...

  • Рэйчел оставляет стакан Дэвиса полупустым, но в следующем кадре, когда Дэвис идет на кухню, стакан наполнен до краев.

Кадры из фильма



Тех. данные (MI)

Код:
Общее
Уникальный идентификатор                 : 173206472157063623805338250028346988590 (0x824E5A66A7C4D22F262997A8DCB7582E)
Полное имя                               : E:\тест\Reasonable Doubt.2014.720p.BluRay.x264-LEONARDO_[scarabey.org].mkv
Формат                                   : Matroska
Версия формата                           : Version 2
Размер файла                             : 1,85 Гбайт
Продолжительность                        : 1 ч. 31 м.
Общий поток                              : 2907 Кбит/сек
Название фильма                          : Release by Leonardo for Scarabey.org
Дата кодирования                         : UTC 2014-09-03 05:54:59
Программа кодирования                    : mkvmerge v5.0.1 ('Es ist Sommer') built on Oct 23 2011 00:46:40
Библиотека кодирования                   : libebml v1.2.2 + libmatroska v1.3.0
Attachements                             : cover.jpg
Видео
Идентификатор                            : 1
Формат                                   : AVC
Формат/Информация                        : Advanced Video Codec
Профиль формата                          : High@L4.1
Параметр CABAC формата                   : Да
Параметр ReFrames формата                : 8 кадров
Идентификатор кодека                     : V_MPEG4/ISO/AVC
Продолжительность                        : 1 ч. 31 м.
Битрейт                                  : 1793 Кбит/сек
Ширина                                   : 1280 пикселей
Высота                                   : 534 пикселя
Соотношение сторон                       : 2,40:1
Режим частоты кадров                     : Постоянный
Частота кадров                           : 23,976 кадра/сек
Цветовое пространство                    : YUV
Субдискретизация насыщенности            : 4:2:0
Битовая глубина                          : 8 бит
Тип развёртки                            : Прогрессивная
Бит/(Пиксели*Кадры)                      : 0.109
Размер потока                            : 1,14 Гбайт (62%)
Библиотека кодирования                   : x264 core 125 r2208 d9d2288
Настройки программы                      : cabac=1 / ref=8 / deblock=1:-3:-3 / analyse=0x3:0x133 / me=umh / subme=11 / psy=1 / psy_rd=1.00:0.00 / mixed_ref=1 / me_range=32 / chroma_me=1 / trellis=2 / 8x8dct=1 / cqm=0 / deadzone=21,11 / fast_pskip=0 / chroma_qp_offset=-2 / threads=12 / lookahead_threads=2 / sliced_threads=0 / nr=0 / decimate=1 / interlaced=0 / bluray_compat=0 / constrained_intra=0 / bframes=8 / b_pyramid=2 / b_adapt=2 / b_bias=0 / direct=1 / weightb=1 / open_gop=0 / weightp=2 / keyint=250 / keyint_min=23 / scenecut=40 / intra_refresh=0 / rc=crf / mbtree=0 / crf=17.5 / qcomp=0.60 / qpmin=0 / qpmax=69 / qpstep=4 / ip_ratio=1.40 / pb_ratio=1.30 / aq=2:1.00
Язык                                     : English
Default                                  : Да
Forced                                   : Нет
Аудио #1
Идентификатор                            : 2
Формат                                   : AC-3
Формат/Информация                        : Audio Coding 3
Расширение режима                        : CM (complete main)
Параметр Endianness формата              : Big
Идентификатор кодека                     : A_AC3
Продолжительность                        : 1 ч. 31 м.
Вид битрейта                             : Постоянный
Битрейт                                  : 224 Кбит/сек
Каналы                                   : 2 канала
Расположение каналов                     : Front: L R
Частота                                  : 48,0 КГц
Битовая глубина                          : 16 бит
Метод сжатия                             : С потерями
Размер потока                            : 146 Мбайт (8%)
Язык                                     : Russian
Default                                  : Да
Forced                                   : Да
Аудио #2
Идентификатор                            : 3
Формат                                   : AC-3
Формат/Информация                        : Audio Coding 3
Расширение режима                        : CM (complete main)
Параметр Endianness формата              : Big
Идентификатор кодека                     : A_AC3
Продолжительность                        : 1 ч. 31 м.
Вид битрейта                             : Постоянный
Битрейт                                  : 384 Кбит/сек
Каналы                                   : 6 каналов
Расположение каналов                     : Front: L C R, Side: L R, LFE
Частота                                  : 48,0 КГц
Битовая глубина                          : 16 бит
Метод сжатия                             : С потерями
Размер потока                            : 251 Мбайт (13%)
Заголовок                                : AVO
Язык                                     : Russian
Default                                  : Нет
Forced                                   : Нет
Аудио #3
Идентификатор                            : 4
Формат                                   : AC-3
Формат/Информация                        : Audio Coding 3
Расширение режима                        : CM (complete main)
Параметр Endianness формата              : Big
Идентификатор кодека                     : A_AC3
Продолжительность                        : 1 ч. 31 м.
Вид битрейта                             : Постоянный
Битрейт                                  : 448 Кбит/сек
Каналы                                   : 6 каналов
Расположение каналов                     : Front: L C R, Side: L R, LFE
Частота                                  : 48,0 КГц
Битовая глубина                          : 16 бит
Метод сжатия                             : С потерями
Размер потока                            : 293 Мбайт (15%)
Язык                                     : English
Default                                  : Нет
Forced                                   : Нет
Текст #1
Идентификатор                            : 5
Формат                                   : UTF-8
Идентификатор кодека                     : S_TEXT/UTF8
Идентификатор кодека/Информация          : UTF-8 Plain Text
Язык                                     : Russian
Default                                  : Нет
Forced                                   : Нет
Текст #2
Идентификатор                            : 6
Формат                                   : UTF-8
Идентификатор кодека                     : S_TEXT/UTF8
Идентификатор кодека/Информация          : UTF-8 Plain Text
Заголовок                                : Full
Язык                                     : English
Default                                  : Нет
Forced                                   : Нет
Текст #3
Идентификатор                            : 7
Формат                                   : UTF-8
Идентификатор кодека                     : S_TEXT/UTF8
Идентификатор кодека/Информация          : UTF-8 Plain Text
Заголовок                                : SDH
Язык                                     : English
Default                                  : Нет
Forced                                   : Нет
Текст #4
Идентификатор                            : 8
Формат                                   : UTF-8
Идентификатор кодека                     : S_TEXT/UTF8
Идентификатор кодека/Информация          : UTF-8 Plain Text
Заголовок                                : SDH-CVolored
Язык                                     : English
Default                                  : Нет
Forced                                   : Нет
Меню
00:00:00.000                             : en:(01)00:00:00:000
00:05:23.990                             : en:(02)00:05:23:990
00:12:43.888                             : en:(03)00:12:43:888
00:15:54.828                             : en:(04)00:15:54:828
00:24:05.569                             : en:(05)00:24:05:569
00:27:10.420                             : en:(06)00:27:10:420
00:29:47.702                             : en:(07)00:29:47:702
00:35:27.959                             : en:(08)00:35:27:959
00:40:31.345                             : en:(09)00:40:31:345
00:44:28.791                             : en:(10)00:44:28:791
00:50:40.454                             : en:(11)00:50:40:454
00:54:05.325                             : en:(12)00:54:05:325
00:59:09.963                             : en:(13)00:59:09:963
01:06:54.885                             : en:(14)01:06:54:885
01:11:29.285                             : en:(15)01:11:29:285
01:17:59.383                             : en:(16)01:17:59:383
01:31:18.055                             : en:(17)01:31:18:055

_________________
[Торрент-статистика]
[Профиль]  [ЛС] 
Показать сообщения:    
Ответить на тему

Текущее время: Сегодня 04:38

Часовой пояс: GMT + 4



Вы не можете начинать темы
Вы не можете отвечать на сообщения
Вы не можете редактировать свои сообщения
Вы не можете удалять свои сообщения
Вы не можете голосовать в опросах
Вы не можете прикреплять файлы к сообщениям
Вы не можете скачивать файлы