Миллион способов потерять голову / A Million Ways to Die in the West (Сет МакФарлейн / Seth MacFarlane) [2014 г., комедия, вестерн, BDRip 720p] [Лицензия]

Ответить на тему
 
Автор
Сообщение

ArtZak ®

Пол:

Стаж: 5 лет 1 месяц

Сообщений: 3008

Репутация: 1363 [+] [-]

Откуда: Россия

Пост 06-Сен-2014 01:56

[Цитировать] 

Миллион способов потерять голову / A Million Ways to Die in the West
«От режиссера комедии "ТРЕТИЙ ЛИШНИЙ"»
- Год выпуска: 2014
Страна: США
Жанр: комедия, вестерн
Продолжительность: 01:55:54
Перевод: Профессиональный (полное дублирование) [Лицензия]
Оригинальная аудиодорожка: нет
Навигация по главам: есть
Субтитры: русские, украинские, английские
Режиссер: Сет МакФарлейн / Seth MacFarlane
Производство: Bluegrass Films, Fuzzy Door Productions, Media Rights Capital, RGB Media- -В ролях:
Сет МакФарлейн, Шарлиз Терон, Аманда Сайфред, Лиам Нисон, Джованни Рибизи, Нил Патрик Харрис, Сара Силверман, Кристофер Хэйген, Уэс Стьюди, Мэтт Кларк и др.
Описание:
Угораздило же влюбиться не в том месте и не в то время. Здесь хамят в ресторанах, о горячей воде слагают легенды, да и с транспортом полный коллапс. Но у таинственной незнакомки отменная фигура, да и стреляет она без промаха. Кто же по своей воле откажется от такой красотки?
Автор рипа:

Тип релиза: BDRip 720p
Контейнер: MKV
Видео: AVC, 1280x534 (2.40:1) at 23.976 fps, AVC at 3057 kbps avg, 0.187 bit/pixel
Аудио: Russian; AC3; 448 Kbps; CBR; 6 ch; 16 bit; DUB, Blu-ray CEE

MediaInfo

Код:
General
Unique ID                                : 226843892507210541365151159147496974294 (0xAAA88B66318B9498752A059146CFA7D6)
Complete name                            : D:\downloads\A Million Ways to Die in the West.2014.720p.BluRay.x264-LEONARDO_[scarabey.org].mkv
Format                                   : Matroska
Format version                           : Version 2
File size                                : 2.90 GiB
Duration                                 : 1h 56mn
Overall bit rate                         : 3 576 Kbps
Movie name                               : Release by Leonardo for Scarabey.org
Encoded date                             : UTC 2014-09-07 11:05:42
Writing application                      : mkvmerge v5.0.1 ('Es ist Sommer') built on Oct 23 2011 00:46:40
Writing library                          : libebml v1.2.2 + libmatroska v1.3.0
Cover                                    : Yes
Video
ID                                       : 1
Format                                   : AVC
Format/Info                              : Advanced Video Codec
Format profile                           : High@L4.1
Format settings, CABAC                   : Yes
Format settings, ReFrames                : 8 frames
Codec ID                                 : V_MPEG4/ISO/AVC
Duration                                 : 1h 56mn
Bit rate                                 : 3 057 Kbps
Width                                    : 1 280 pixels
Height                                   : 534 pixels
Display aspect ratio                     : 2.40:1
Frame rate mode                          : Constant
Frame rate                               : 23.976 fps
Color space                              : YUV
Chroma subsampling                       : 4:2:0
Bit depth                                : 8 bits
Scan type                                : Progressive
Bits/(Pixel*Frame)                       : 0.187
Stream size                              : 2.48 GiB (85%)
Writing library                          : x264 core 125 r2208 d9d2288
Encoding settings                        : cabac=1 / ref=8 / deblock=1:-3:-3 / analyse=0x3:0x133 / me=umh / subme=11 / psy=1 / psy_rd=1.00:0.00 / mixed_ref=1 / me_range=32 / chroma_me=1 / trellis=2 / 8x8dct=1 / cqm=0 / deadzone=21,11 / fast_pskip=0 / chroma_qp_offset=-2 / threads=12 / lookahead_threads=2 / sliced_threads=0 / nr=0 / decimate=1 / interlaced=0 / bluray_compat=0 / constrained_intra=0 / bframes=8 / b_pyramid=2 / b_adapt=2 / b_bias=0 / direct=1 / weightb=1 / open_gop=0 / weightp=2 / keyint=250 / keyint_min=23 / scenecut=40 / intra_refresh=0 / rc=crf / mbtree=0 / crf=18.0 / qcomp=0.60 / qpmin=0 / qpmax=69 / qpstep=4 / ip_ratio=1.10 / pb_ratio=1.10 / aq=1:1.00
Language                                 : English
Default                                  : Yes
Forced                                   : No
Audio
ID                                       : 2
Format                                   : AC-3
Format/Info                              : Audio Coding 3
Mode extension                           : CM (complete main)
Format settings, Endianness              : Big
Codec ID                                 : A_AC3
Duration                                 : 1h 56mn
Bit rate mode                            : Constant
Bit rate                                 : 448 Kbps
Channel(s)                               : 6 channels
Channel positions                        : Front: L C R, Side: L R, LFE
Sampling rate                            : 48.0 KHz
Bit depth                                : 16 bits
Compression mode                         : Lossy
Stream size                              : 372 MiB (13%)
Language                                 : Russian
Default                                  : Yes
Forced                                   : Yes
Text #1
ID                                       : 3
Format                                   : UTF-8
Codec ID                                 : S_TEXT/UTF8
Codec ID/Info                            : UTF-8 Plain Text
Language                                 : Russian
Default                                  : No
Forced                                   : No
Text #2
ID                                       : 4
Format                                   : UTF-8
Codec ID                                 : S_TEXT/UTF8
Codec ID/Info                            : UTF-8 Plain Text
Language                                 : Ukrainian
Default                                  : No
Forced                                   : No
Text #3
ID                                       : 5
Format                                   : UTF-8
Codec ID                                 : S_TEXT/UTF8
Codec ID/Info                            : UTF-8 Plain Text
Language                                 : English
Default                                  : No
Forced                                   : No
Text #4
ID                                       : 6
Format                                   : UTF-8
Codec ID                                 : S_TEXT/UTF8
Codec ID/Info                            : UTF-8 Plain Text
Title                                    : SDH
Language                                 : English
Default                                  : No
Forced                                   : No
Text #5
ID                                       : 7
Format                                   : UTF-8
Codec ID                                 : S_TEXT/UTF8
Codec ID/Info                            : UTF-8 Plain Text
Title                                    : Colored
Language                                 : English
Default                                  : No
Forced                                   : No
Menu
00:00:00.000                             : en:Chapter 01
00:03:02.139                             : en:Chapter 02
00:08:25.795                             : en:Chapter 03
00:12:26.995                             : en:Chapter 04
00:18:24.894                             : en:Chapter 05
00:23:06.175                             : en:Chapter 06
00:28:13.441                             : en:Chapter 07
00:35:10.439                             : en:Chapter 08
00:39:33.703                             : en:Chapter 09
00:44:59.822                             : en:Chapter 10
00:50:14.469                             : en:Chapter 11
00:58:14.532                             : en:Chapter 12
01:05:44.939                             : en:Chapter 13
01:13:28.069                             : en:Chapter 14
01:17:55.127                             : en:Chapter 15
01:23:44.560                             : en:Chapter 16
01:27:24.655                             : en:Chapter 17
01:35:27.887                             : en:Chapter 18
01:42:52.373                             : en:Chapter 19
01:49:42.951                             : en:Chapter 20

Скриншоты

[Торрент-статистика]
[Профиль]  [ЛС] 

ArtZak ®

Пол:

Стаж: 5 лет 1 месяц

Сообщений: 3008

Репутация: 1363 [+] [-]

Откуда: Россия

Пост 08-Сен-2014 00:34 (спустя 1 день 22 часа)

[Цитировать] 

Обновлено на Лицензию.
[Торрент-статистика]
[Профиль]  [ЛС] 
Показать сообщения:    
Ответить на тему

Текущее время: Сегодня 22:09

Часовой пояс: GMT + 4



Вы не можете начинать темы
Вы не можете отвечать на сообщения
Вы не можете редактировать свои сообщения
Вы не можете удалять свои сообщения
Вы не можете голосовать в опросах
Вы не можете прикреплять файлы к сообщениям
Вы не можете скачивать файлы