Красотки в Париже / Sous les jupes des filles (Одри Дана / Audrey Dana) [2013 г., комедия, WEB-DL 720p] MVO

Ответить на тему
 
Автор
Сообщение

awk05 ®

Пол:

Стаж: 8 лет 10 месяцев

Сообщений: 1334

Репутация: 278 [+] [-]

Откуда: Западная Украина Ривне

Пост 05-Сен-2014 16:43

[Цитировать] 

-- Красотки в Париже / Sous les jupes des filles«Хотеть по-французски»-- Год выхода: 2014
Жанр: комедия
Выпущено: Франция / Fidelite Films, M6, M6 Films, Orange Cinema Series, Wild Bunch
Продолжительность: 01:56:01
Озвучивание: Профессиональное (многоголосое)
Субтитры: вшитые русские--Режиссер: Одри Дана / Audrey Dana--В ролях: Ванесса Паради (Vanessa), Изабель Аджани (Isabelle), Летиция Каста (Laetitia), Сильви Тестю (Sam), Марина Хэндс (Inès), Алис Белаиди (Adeline), Жеральдин Накаш (Ysis), Жюли Ферье (Fanny), Одри Флеро (Sophie), Одри Дана (Jo), Элис Тальони (Marie), Паскаль Элбе (Le bel avocat), Марк Лавуан (Le beau gynécologue), и др.--О фильме: Сюжет фильма разворачивается вокруг жительниц Франции, главных героинь киноленты. Их, как и всех других женщин в мире беспокоят отношения с мужьями. У каждой из девушек своя семейная проблема, совместными усилиями они ищут разные варианты решения своих проблем с мужчинами.
Для этого героини делают рискованные поступки, а иногда их действия даже неадекватные. Но все равно каждая из них получает то, о чем мечтает. Одна из героинь тайно мечтает испытать большие чувства, но не замечает достойный кандидатов в мужья из-за того, что слишком увлечена карьерой. Один из самых заинтересованных поклонников всячески старается заполучить внимание девушки и разрабатывает план по её покорению. Хоть раз в жизни любой мужчина задавал себе вопрос: как понравится женщинам и что они любят? Но ответ на этот вопрос не знают даже сами женщины, поэтому они никак не могут определится в жизни.
В поисках любви и порыве страсти одна из героинь не ценит преданности и верности своего партнера, и планирует разорвать с ним отношения. Со временем мнение что такое любовь у женщин меняется, и они возвращаются на землю со своих иллюзорных миров. Француженок знают во всем мире как темпераментных и горячих женщин, которые ждут от своих женихов смелых поступков. Они любят отважных и смелых мужчин.--Качество видео: WEB-DL 720p
Формат видео: MKV
Видео кодек: AVC (Main@L3.1)
Аудио кодек: AC-3
Видео: AVC, 1280x536 (2.35:1), 24.000 fps, 4 037 Kbps (0.245 bit/pixel)
Аудио 1: AC-3, 48.0 KHz, 2 ch, 192 Kbps, CBR, 16 bits [Русский]
Аудио 2: AC-3, 48.0 KHz, 6 ch, 384 Kbps, CBR, 16 bits [Французский] -- --

Кадры из фильма



Тех. данные (MI)

Код:
Общее
Уникальный идентификатор                 : 191542833221612812209114335555023433772 (0x9019CECCDC5C1AF69463BBDE1682702C)
Полное имя                               : G:\тест\Kras0tk1.v.P4r1zhe.2014.P.WEBDL.720p.mkv
Формат                                   : Matroska
Версия формата                           : Version 4 / Version 2
Размер файла                             : 3,81 Гбайт
Продолжительность                        : 1 ч. 56 м.
Общий поток                              : 4706 Кбит/сек
Дата кодирования                         : UTC 2014-09-04 18:26:34
Программа кодирования                    : mkvmerge v6.9.1 ('Blue Panther') 64bit built on Apr 18 2014 18:23:38
Библиотека кодирования                   : libebml v1.3.0 + libmatroska v1.4.1
Видео
Идентификатор                            : 1
Формат                                   : AVC
Формат/Информация                        : Advanced Video Codec
Профиль формата                          : Main@L3.1
Параметр CABAC формата                   : Нет
Параметр ReFrames формата                : 2 кадра
Идентификатор кодека                     : V_MPEG4/ISO/AVC
Продолжительность                        : 1 ч. 56 м.
Битрейт                                  : 4037 Кбит/сек
Ширина                                   : 1280 пикселей
Высота                                   : 536 пикселей
Соотношение сторон                       : 2,40:1
Режим частоты кадров                     : Постоянный
Частота кадров                           : 24,000 кадра/сек
Цветовое пространство                    : YUV
Субдискретизация насыщенности            : 4:2:0
Битовая глубина                          : 8 бит
Тип развёртки                            : Прогрессивная
Бит/(Пиксели*Кадры)                      : 0.245
Размер потока                            : 3,27 Гбайт (86%)
Язык                                     : English
Default                                  : Да
Forced                                   : Нет
Основные цвета                           : BT.709
Характеристики трансфера                 : BT.709
Коэффициенты матрицы                     : BT.709
Аудио #1
Идентификатор                            : 2
Формат                                   : AC-3
Формат/Информация                        : Audio Coding 3
Расширение режима                        : CM (complete main)
Параметр Endianness формата              : Big
Идентификатор кодека                     : A_AC3
Продолжительность                        : 1 ч. 56 м.
Вид битрейта                             : Постоянный
Битрейт                                  : 192 Кбит/сек
Каналы                                   : 2 канала
Расположение каналов                     : Front: L R
Частота                                  : 48,0 КГц
Битовая глубина                          : 16 бит
Метод сжатия                             : С потерями
Размер потока                            : 159 Мбайт (4%)
Язык                                     : Russian
Default                                  : Да
Forced                                   : Нет
Аудио #2
Идентификатор                            : 3
Формат                                   : AC-3
Формат/Информация                        : Audio Coding 3
Расширение режима                        : CM (complete main)
Параметр Endianness формата              : Big
Идентификатор кодека                     : A_AC3
Продолжительность                        : 1 ч. 56 м.
Вид битрейта                             : Постоянный
Битрейт                                  : 384 Кбит/сек
Каналы                                   : 6 каналов
Расположение каналов                     : Front: L C R, Side: L R, LFE
Частота                                  : 48,0 КГц
Битовая глубина                          : 16 бит
Метод сжатия                             : С потерями
Размер потока                            : 319 Мбайт (8%)
Язык                                     : French
Default                                  : Нет
Forced                                   : Нет
Меню
00:00:00.000                             : en:Глава 1
00:02:55.000                             : en:Глава 2
00:07:54.000                             : en:Глава 3
00:12:26.000                             : en:Глава 4
00:19:15.000                             : en:Глава 5
00:24:47.000                             : en:Глава 6
00:29:24.000                             : en:Глава 7
00:33:06.000                             : en:Глава 8
00:38:41.000                             : en:Глава 9
00:45:47.000                             : en:Глава 10
00:52:36.000                             : en:Глава 11
00:59:11.000                             : en:Глава 12
01:03:07.000                             : en:Глава 13
01:07:44.000                             : en:Глава 14
01:14:11.000                             : en:Глава 15
01:19:52.000                             : en:Глава 16
01:26:02.000                             : en:Глава 17
01:32:59.000                             : en:Глава 18
01:38:00.000                             : en:Глава 19
01:42:51.000                             : en:Глава 20
01:48:03.000                             : en:Глава 21

_________________
[Торрент-статистика]
[Профиль]  [ЛС] 
Показать сообщения:    
Ответить на тему

Текущее время: Сегодня 02:29

Часовой пояс: GMT + 4



Вы не можете начинать темы
Вы не можете отвечать на сообщения
Вы не можете редактировать свои сообщения
Вы не можете удалять свои сообщения
Вы не можете голосовать в опросах
Вы не можете прикреплять файлы к сообщениям
Вы не можете скачивать файлы