Человек с Земли / The Man from Earth (Ричард Шенкман / Richard Schenkman) [2007, фантастика, драма, BDRip 720p ][Кубик в Кубе]

Ответить на тему
 
Автор
Сообщение

awk05 ®

Пол:

Стаж: 8 лет 9 месяцев

Сообщений: 1334

Репутация: 278 [+] [-]

Откуда: Западная Украина Ривне

Пост 05-Сен-2014 15:34

[Цитировать] 

--Человек с Земли / The Man from Earth-- Год выпуска: 2007
Страна: США
Жанр: фантастика, драма
Продолжительность: 01:27:08
Перевод: Профессиональный (двухголосый)[Кубик в Кубе]
Cубтитры: русские, английские
Режиссер: Ричард Шенкман / Richard Schenkman--В ролях: Дэвид Ли Смит (John Oldman), Тони Тодд (Dan), Джон Биллингсли (Harry), Эллен Кроуфорд (Edith), Анника Петерсон (Sandy), Уильям Кэтт (Art), Алексис Торпе (Linda Murphy), Ричард Риле (Dr. Will Gruber), Steven Littles (Moving Man #1), Chase Strague (Moving Man #2), Робби Брайан (Officer)--Описание: Никто из друзей и коллег профессора Джона Олдмэна не ожидал чем обернется прощальная вечеринка, устроенная им по поводу своего отъезда. Джон удивил всех признанием о том, что он бессмертный человек, живущий на Земле уже около 14 тысяч лет. Конечно, никто не воспринимает признание Джона всерьез, следуют различные подколки и шутки в его адрес, но Джон абсолютно серьезен. Он рассказывает о том, когда он родился, когда впервые понял, что он не такой как все, как ему приходилось выживать все эти тысячи лет и многое другое. Друзья Джона оказываются заинтригованы: с одной стороны история Джона достаточно нелепа и нереальна, а с другой стороны их друг Джон вовсе не тот человек, которому нравится разыгрывать своих друзей. Пытаясь в шутку запутать Джона вопросами о его прошлом, они невольно начинают проникаться его историей. Тем более, что Джон не пытается их убедить в обязательном порядке и не предоставляет никаких доказательств своей истории, он просто рассказывает о ней и отвечает на возникающие вопросы. И ни разу Джон не сбивается и не ошибается, вся его история начинает выглядеть очень достоверно, что заставляет его друзей нервничать: слишком уж убедительным оказался Джон и для шутки его история явно затянулась.--Качество видео: BDRip 720p
Формат видео: MKV
Видео кодек: AVC (High@L3.1)
Аудио кодек: AC-3
Видео: AVC, 1280x720 (16:9), 23.976 fps, 6 541 Kbps (0.296 bit/pixel)
Аудио: AC-3, 48.0 KHz, 2 ch, 224 Kbps, CBR, 16 bits [Русский] -- --

Знаете ли Вы, что...

  • Персонаж Тони Тодда произносит фразу: «Я пойду домой и буду смотреть Стартрек. Хоть немного чего-то разумного». Сценарист фильма Джером Биксби ранее работал над сценарием к оригинальному сериалу Звездный путь (1966-1969).
  • Фильм стал популярен благодаря тому, что его сняли на камеру пираты и опубликовали в сети. После этого продюсер картины написал благодарственное письмо сайту ReleaseLog, на котором был опубликован фильм.

Кадры из фильма



Тех. данные (MI)

Код:
Общее
Уникальный идентификатор                 : 177076844382929025402125671026909735607 (0x8537C27C0EBC639C8A14BE1C1F2B6AB7)
Полное имя                               : G:\тест\Chelovek.s.zemli.2007.x264.BDRip.720p.mkv
Формат                                   : Matroska
Версия формата                           : Version 2
Размер файла                             : 4,11 Гбайт
Продолжительность                        : 1 ч. 27 м.
Общий поток                              : 6752 Кбит/сек
Дата кодирования                         : UTC 2010-12-30 15:41:36
Программа кодирования                    : mkvmerge v4.4.0 ('Die Wiederkehr') сборка от Oct 31 2010 21:52:48
Библиотека кодирования                   : libebml v1.0.0 + libmatroska v1.0.0
Видео
Идентификатор                            : 1
Формат                                   : AVC
Формат/Информация                        : Advanced Video Codec
Профиль формата                          : High@L3.1
Параметр CABAC формата                   : Да
Параметр ReFrames формата                : 4 кадра
Идентификатор кодека                     : V_MPEG4/ISO/AVC
Продолжительность                        : 1 ч. 27 м.
Битрейт                                  : 6541 Кбит/сек
Ширина                                   : 1280 пикселей
Высота                                   : 720 пикселей
Соотношение сторон                       : 16:9
Режим частоты кадров                     : Постоянный
Частота кадров                           : 23,976 кадра/сек
Цветовое пространство                    : YUV
Субдискретизация насыщенности            : 4:2:0
Битовая глубина                          : 8 бит
Тип развёртки                            : Прогрессивная
Бит/(Пиксели*Кадры)                      : 0.296
Размер потока                            : 3,89 Гбайт (95%)
Библиотека кодирования                   : x264 core 84 r1416 fcf70c2
Настройки программы                      : cabac=1 / ref=5 / deblock=1:0:0 / analyse=0x3:0x113 / me=umh / subme=7 / psy=1 / psy_rd=1.0:0.0 / mixed_ref=1 / me_range=16 / chroma_me=1 / trellis=1 / 8x8dct=1 / cqm=0 / deadzone=21,11 / fast_pskip=0 / chroma_qp_offset=-2 / threads=12 / sliced_threads=0 / nr=0 / decimate=1 / mbaff=0 / constrained_intra=0 / bframes=3 / b_pyramid=1 / b_adapt=1 / b_bias=0 / direct=1 / wpredb=1 / wpredp=2 / keyint=250 / keyint_min=25 / scenecut=40 / intra_refresh=0 / rc_lookahead=40 / rc=2pass / mbtree=1 / bitrate=6541 / ratetol=1.0 / qcomp=0.60 / qpmin=10 / qpmax=51 / qpstep=4 / cplxblur=20.0 / qblur=0.5 / ip_ratio=1.40 / aq=1:1.00
Язык                                     : English
Default                                  : Да
Forced                                   : Нет
Аудио
Идентификатор                            : 2
Формат                                   : AC-3
Формат/Информация                        : Audio Coding 3
Расширение режима                        : CM (complete main)
Параметр Endianness формата              : Big
Идентификатор кодека                     : A_AC3
Продолжительность                        : 1 ч. 27 м.
Вид битрейта                             : Постоянный
Битрейт                                  : 224 Кбит/сек
Каналы                                   : 2 канала
Расположение каналов                     : Front: L R
Частота                                  : 48,0 КГц
Битовая глубина                          : 16 бит
Метод сжатия                             : С потерями
Размер потока                            : 140 Мбайт (3%)
Default                                  : Да
Forced                                   : Нет

_________________
[Торрент-статистика]
[Профиль]  [ЛС] 
Показать сообщения:    
Ответить на тему

Текущее время: Сегодня 10:44

Часовой пояс: GMT + 4



Вы не можете начинать темы
Вы не можете отвечать на сообщения
Вы не можете редактировать свои сообщения
Вы не можете удалять свои сообщения
Вы не можете голосовать в опросах
Вы не можете прикреплять файлы к сообщениям
Вы не можете скачивать файлы