А вот и она / And So It Goes (Роб Райнер / Rob Reiner) [2014 г., драма, мелодрама, комедия, WEB-DL 720p] DUB

Ответить на тему
 
Автор
Сообщение

awk05 ®

Пол:

Стаж: 4 года 5 месяцев

Сообщений: 1352

Репутация: 275 [+] [-]

Откуда: Западная Украина Ривне

Пост 01-Сен-2014 17:23

[Цитировать] 

--А вот и она / And So It Goes«Миллион причин не любить Орена. Спроси любого»-- Год выхода: 2014
Жанр: драма, мелодрама, комедия
Выпущено: США / ASIG Productions, Castle Rock Entertainment, Envision Entertainment, Foresight Unlimited
Продолжительность: 01:29:38
Озвучивание: Дублированное [iTunes]
Субтитры: отсутствуют--Режиссер: Роб Райнер / Rob Reiner--В ролях: Майкл Дуглас (Oren Little), Дайан Китон (Leah), Стерлинг Джеринс (Sarah), Энни Пэррис (Kate), Остин Лайзи (Kyle), Майкл Терра (Peter), Симпкинс Сойер (Dylan), Максвелл Симкинс (Caleb), Морис Джонс (Ray), Йайа ДаКоста (Kennedy), Скотт Шеперд (Luke), Энди Карл (Ted), Фрэнсис Стернхаген (Claire), и др.--О фильме: Этот до бесконечности самовлюбленный агент по продажам недвижимости, в роли которого выступает несравненный Майкл Дуглас, только и думает, что о своей неотразимости. Он обожает эпатировать публику и быть в центре внимания всегда и везде. Едва ли этот самодур сподобен на то, чтобы заботиться о ком-то еще... В одночасье в жизнь главного героя врываются колоссальные изменения, о которых он и подумать не мог. У него появляется внучка, о которой он, конечно же, никогда не подозревал. Буквально пару дней назад он был беззаботным красавчиком, а теперь герой превращается в дедулю. Решительная и очень обаятельная соседка помогает ему в этом. Романтическая комедия под названием "А вот и она" рассказывает о том, как человек с черствой душой учиться любить и проявлять свои самые лучшие внутренние качества.--Качество видео: WEB-DL 720p
Формат видео: MKV
Видео кодек: AVC (Main@L3.1)
Аудио кодек: AC-3
Видео: AVC, 1280@960x566 (2.25:1), 25.000 fps, 4 006 Kbps (0.295 bit/pixel)
Аудио: AC-3, 48.0 KHz, 6 ch, 384 Kbps, CBR, 16 bits [Русский] --

Знаете ли Вы, что...

  • Сисси Спейсек отказалась от роли, которая в итоге досталась Дайан Китон.
  • Внимание! Список ошибок в фильме может содержать спойлеры. Будьте осторожны.
  • Когда сын Орена садится в машину в конце фильма, на улице идет проливной дождь. Однако, когда Рассел залезает внутрь, он абсолютно сухой.

Кадры из фильма



Тех. данные (MI)

Код:
Общее
Уникальный идентификатор                 : 171656620168377354583095598193404215562 (0x8123DCCC5F0CC8E4A782AF5A4E03010A)
Полное имя                               : E:\тест\A.v0t.i.0na.2014.D.WEB-DL.720p.mkv
Формат                                   : Matroska
Версия формата                           : Version 4 / Version 2
Размер файла                             : 2,80 Гбайт
Продолжительность                        : 1 ч. 29 м.
Общий поток                              : 4479 Кбит/сек
Дата кодирования                         : UTC 2014-08-31 19:12:52
Программа кодирования                    : mkvmerge v6.9.1 ('Blue Panther') 64bit built on Apr 18 2014 18:23:38
Библиотека кодирования                   : libebml v1.3.0 + libmatroska v1.4.1
Видео
Идентификатор                            : 1
Формат                                   : AVC
Формат/Информация                        : Advanced Video Codec
Профиль формата                          : Main@L3.1
Параметр CABAC формата                   : Нет
Параметр ReFrames формата                : 2 кадра
Идентификатор кодека                     : V_MPEG4/ISO/AVC
Продолжительность                        : 1 ч. 29 м.
Битрейт                                  : 4006 Кбит/сек
Ширина                                   : 960 пикселей
Высота                                   : 566 пикселей
Соотношение сторон                       : 2,25:1
Режим частоты кадров                     : Постоянный
Частота кадров                           : 25,000 кадров/сек
Цветовое пространство                    : YUV
Субдискретизация насыщенности            : 4:2:0
Битовая глубина                          : 8 бит
Тип развёртки                            : Прогрессивная
Бит/(Пиксели*Кадры)                      : 0.295
Размер потока                            : 2,51 Гбайт (89%)
Язык                                     : English
Default                                  : Да
Forced                                   : Нет
Основные цвета                           : BT.709
Характеристики трансфера                 : BT.709
Коэффициенты матрицы                     : BT.709
Аудио
Идентификатор                            : 2
Формат                                   : AC-3
Формат/Информация                        : Audio Coding 3
Расширение режима                        : CM (complete main)
Параметр Endianness формата              : Big
Идентификатор кодека                     : A_AC3
Продолжительность                        : 1 ч. 29 м.
Вид битрейта                             : Постоянный
Битрейт                                  : 384 Кбит/сек
Каналы                                   : 6 каналов
Расположение каналов                     : Front: L C R, Side: L R, LFE
Частота                                  : 48,0 КГц
Битовая глубина                          : 16 бит
Метод сжатия                             : С потерями
Размер потока                            : 246 Мбайт (9%)
Язык                                     : Russian
Default                                  : Да
Forced                                   : Нет
Меню
00:00:00.000                             : en:Глава 1
00:05:58.000                             : en:Глава 2
00:11:00.000                             : en:Глава 3
00:16:00.000                             : en:Глава 4
00:21:13.000                             : en:Глава 5
00:26:14.000                             : en:Глава 6
00:31:18.000                             : en:Глава 7
00:36:19.000                             : en:Глава 8
00:41:45.000                             : en:Глава 9
00:46:52.000                             : en:Глава 10
00:51:52.000                             : en:Глава 11
00:57:02.000                             : en:Глава 12
01:02:04.000                             : en:Глава 13
01:07:06.000                             : en:Глава 14
01:12:08.000                             : en:Глава 15
01:17:12.000                             : en:Глава 16
01:22:25.000                             : en:Глава 17

_________________
[Торрент-статистика]
[Профиль]  [ЛС] 
Показать сообщения:    
Ответить на тему

Текущее время: Сегодня 12:10

Часовой пояс: GMT + 4



Вы не можете начинать темы
Вы не можете отвечать на сообщения
Вы не можете редактировать свои сообщения
Вы не можете удалять свои сообщения
Вы не можете голосовать в опросах
Вы не можете прикреплять файлы к сообщениям
Вы не можете скачивать файлы