Поцелуй навылет / Kiss Kiss Bang Bang (Шэйн Блэк / Shane Black) [2005 г., боевик, комедия, криминал, детектив, BDRip 720p] DUB + DVO

Ответить на тему
 
Автор
Сообщение

awk05 ®

Пол:

Стаж: 8 лет 10 месяцев

Сообщений: 1334

Репутация: 278 [+] [-]

Откуда: Западная Украина Ривне

Пост 30-Авг-2014 15:25

[Цитировать] 

--Поцелуй навылет / Kiss Kiss Bang Bang
«Секс. Преступление. Тайна»
-- Страна: США
Студия: Warner Bros. Pictures, Silver Pictures
Жанр: боевик, комедия, криминал, детектив
Год выпуска: 2005
Продолжительность: 01:42:42
Перевод 1: Профессиональный дублированный [лицензия]
Перевод 2: Профессиональный двухголосый [Tycoon-Studio]
Cубтитры: русские, английские--Режиссер: Шэйн Блэк / Shane Black--В ролях: Роберт Дауни мл. (Harry Lockhart), Вэл Килмер (Gay Perry), Мишель Монахэн (Harmony Faith Lane), Корбин Бернсен (Harlan Dexter), Дэш Майок (Mr. Frying Pan), Ларри Миллер (Dabney Shaw), Рокмонд Данбар (Mr. Fire), Шаннин Соссамон (Pink Hair Girl), Анджела Линдвэлл (Flicka), Индио Фалконер Дауни (Harry Lockhart - Age 9), Эриель Винтер (Harmony Faith Lane - Age 7), Таня Ричерт (B-Movie Actress), и др.--Описание: Зайдя на Рождество в нью-йоркский магазин игрушек, симпатичный вор Гарри Локхарт случайно нажимает на сигнализацию и, спасаясь бегством от полиции, попадает на кинопробы в детективный фильм. Продюсеру нравится его напористость, и он приглашает Гарри в Голливуд. Готовит Локхарта к кинопробе Перри ван Шрайк, настоящий сыщик, оказавшийся к тому же еще и гомосексуалистом.
На роль главной героини претендует актриса Хармони Фэйт, с которой Гарри связывает общая любовь к детективным историям Джонни Госсамера. Однажды ночью Перри берет Гарри с собой на задание, и в итоге им приходится заняться расследованием убийства некоей женщины. Затем, как и в романе Госсамера, возникает еще одна детективная линия: сестра Хармони совершает самоубийство, которое, как выясняется, имеет прямое отношение к обнаруженному Перри и Гарри трупу…--Качество видео: BDRip 720p
Формат видео: MKV
Видео кодек: AVC (High@L4.1)
Аудио кодек: AC-3
Видео: AVC, 1280x530 (2.40:1), 23.976 fps, 5 398 Kbps (0.332 bit/pixel)
Аудио 1: AC-3, 48.0 KHz, 6 ch, 384 Kbps, CBR, 16 bits [Русский]
Аудио 2: AC-3, 48.0 KHz, 6 ch, 640 Kbps, CBR, 16 bits [Русский]
Аудио 3: AC-3, 48.0 KHz, 6 ch, 640 Kbps, CBR, 16 bits [Английский] -- --

Знаете ли Вы, что...

  • Фильм снят по мотивам романа Бретта Халлидея «Тела лежат там, где ты их нашёл» (Bodies Are Where You Find Them, 1941).
  • Незадолго до съёмок этого фильма Роберт Дауни мл. закончил курс реабилитационного лечения от алкогольной и наркотической зависимостей. Чтобы поддержать Роберта, Вэл Килмер не пил во время съёмок фильма.
  • Вэл Килмер был вынужден сбросить около 20 килограммов после фильма «Александр» (2004) для съёмок в этом фильме.
  • На мобильном телефоне Перри играет песня «I will survive» Глории Гейнор, которая часто используется как гимн гей-сообщества.
  • Съёмки фильма происходили в феврале-мае 2004 года в Лос-Анджелесе.
  • Название фильма связано с Джеймсом Бондом — в 1962 году итальянский журналист назвал его «Mr. Kiss-Kiss, Bang-Bang».
  • Девятилетнего Гарри Локхарта сыграл сын Роберта Дауни мл. Индио Фалконер Дауни.
  • В заключительных титрах фильма играет песня «Broken», написанная и исполненная Робертом Дауни мл. Впервые она увидела свет в составе его дебютного альбома «The Futurist», выпущенного в 2004-м году.

Кадры из фильма



Тех. данные (MI)

Код:
Общее
Уникальный идентификатор                 : 209956126190229899614764886264925514500 (0x9DF4143C35BF2523B3E7493A5D2DEB04)
Полное имя                               : G:\Films-new\Pocelyu.Navilet.2005.x264.BDRip.720p.IRONCLUB.mkv
Формат                                   : Matroska
Версия формата                           : Version 2
Размер файла                             : 5,07 Гбайт
Продолжительность                        : 1 ч. 42 м.
Общий поток                              : 7061 Кбит/сек
Название фильма                          : IRONCLUB
Дата кодирования                         : UTC 2011-12-14 15:20:00
Программа кодирования                    : mkvmerge v5.1.0 ('And so it goes') built on Nov 28 2011 23:58:28
Библиотека кодирования                   : libebml v1.2.3 + libmatroska v1.3.0
Видео
Идентификатор                            : 1
Формат                                   : AVC
Формат/Информация                        : Advanced Video Codec
Профиль формата                          : High@L4.1
Параметр CABAC формата                   : Да
Параметр ReFrames формата                : 12 кадров
Идентификатор кодека                     : V_MPEG4/ISO/AVC
Продолжительность                        : 1 ч. 42 м.
Битрейт                                  : 5398 Кбит/сек
Ширина                                   : 1280 пикселей
Высота                                   : 530 пикселей
Соотношение сторон                       : 2,40:1
Режим частоты кадров                     : Постоянный
Частота кадров                           : 23,976 кадра/сек
Цветовое пространство                    : YUV
Субдискретизация насыщенности            : 4:2:0
Битовая глубина                          : 8 бит
Тип развёртки                            : Прогрессивная
Бит/(Пиксели*Кадры)                      : 0.332
Размер потока                            : 3,77 Гбайт (74%)
Заголовок                                : Kiss.Kiss.Bang.Bang.2005.720p.BluRay.DD5.1.x264-EbP
Библиотека кодирования                   : x264 core 119 r2106 07efeb4
Настройки программы                      : cabac=1 / ref=12 / deblock=1:-3:-3 / analyse=0x3:0x113 / me=esa / subme=10 / psy=1 / psy_rd=1.00:0.00 / mixed_ref=1 / me_range=32 / chroma_me=1 / trellis=2 / 8x8dct=1 / cqm=0 / deadzone=21,11 / fast_pskip=0 / chroma_qp_offset=-2 / threads=12 / sliced_threads=0 / nr=0 / decimate=0 / interlaced=0 / bluray_compat=0 / constrained_intra=0 / bframes=7 / b_pyramid=2 / b_adapt=2 / b_bias=0 / direct=3 / weightb=1 / open_gop=0 / weightp=2 / keyint=250 / keyint_min=23 / scenecut=40 / intra_refresh=0 / rc=2pass / mbtree=0 / bitrate=5398 / ratetol=1.0 / qcomp=0.60 / qpmin=0 / qpmax=69 / qpstep=4 / cplxblur=20.0 / qblur=0.5 / ip_ratio=1.40 / pb_ratio=1.30 / aq=1:0.80
Язык                                     : English
Default                                  : Да
Forced                                   : Нет
Основные цвета                           : BT.709
Характеристики трансфера                 : BT.709
Коэффициенты матрицы                     : BT.709
Аудио #1
Идентификатор                            : 2
Формат                                   : AC-3
Формат/Информация                        : Audio Coding 3
Расширение режима                        : CM (complete main)
Параметр Endianness формата              : Big
Идентификатор кодека                     : A_AC3
Продолжительность                        : 1 ч. 42 м.
Вид битрейта                             : Постоянный
Битрейт                                  : 384 Кбит/сек
Каналы                                   : 6 каналов
Расположение каналов                     : Front: L C R, Side: L R, LFE
Частота                                  : 48,0 КГц
Битовая глубина                          : 16 бит
Метод сжатия                             : С потерями
Размер потока                            : 282 Мбайт (5%)
Заголовок                                : DUB R5
Язык                                     : Russian
Default                                  : Да
Forced                                   : Нет
Аудио #2
Идентификатор                            : 3
Формат                                   : AC-3
Формат/Информация                        : Audio Coding 3
Расширение режима                        : CM (complete main)
Параметр Endianness формата              : Big
Идентификатор кодека                     : A_AC3
Продолжительность                        : 1 ч. 42 м.
Вид битрейта                             : Постоянный
Битрейт                                  : 640 Кбит/сек
Каналы                                   : 6 каналов
Расположение каналов                     : Front: L C R, Side: L R, LFE
Частота                                  : 48,0 КГц
Битовая глубина                          : 16 бит
Метод сжатия                             : С потерями
Размер потока                            : 470 Мбайт (9%)
Заголовок                                : DVO Tycoon-Studio
Язык                                     : Russian
Default                                  : Нет
Forced                                   : Нет
Аудио #3
Идентификатор                            : 4
Формат                                   : AC-3
Формат/Информация                        : Audio Coding 3
Расширение режима                        : CM (complete main)
Параметр Endianness формата              : Big
Идентификатор кодека                     : A_AC3
Продолжительность                        : 1 ч. 42 м.
Вид битрейта                             : Постоянный
Битрейт                                  : 640 Кбит/сек
Каналы                                   : 6 каналов
Расположение каналов                     : Front: L C R, Side: L R, LFE
Частота                                  : 48,0 КГц
Битовая глубина                          : 16 бит
Метод сжатия                             : С потерями
Размер потока                            : 470 Мбайт (9%)
Заголовок                                : Original
Язык                                     : English
Default                                  : Нет
Forced                                   : Нет
Текст #1
Идентификатор                            : 5
Формат                                   : UTF-8
Идентификатор кодека                     : S_TEXT/UTF8
Идентификатор кодека/Информация          : UTF-8 Plain Text
Заголовок                                : Russian
Язык                                     : Russian
Default                                  : Нет
Forced                                   : Нет
Текст #2
Идентификатор                            : 6
Формат                                   : UTF-8
Идентификатор кодека                     : S_TEXT/UTF8
Идентификатор кодека/Информация          : UTF-8 Plain Text
Заголовок                                : English
Язык                                     : English
Default                                  : Да
Forced                                   : Нет
Меню
00:00:00.000                             : en:Magic Show
00:03:24.621                             : en:Reality and Fiction Blur
00:08:24.754                             : en:Harmony's Destiny
00:12:46.640                             : en:One That Got Away
00:17:19.288                             : en:Recognize Me
00:23:39.334                             : en:Tongue-Tied
00:25:27.901                             : en:Lady in the Lake
00:30:57.772                             : en:Bad News Call
00:33:35.054                             : en:Sudden Caseload
00:36:29.103                             : en:Along Came a Spider
00:38:38.899                             : en:Body Trouble
00:44:22.660                             : en:Harmony's One Lie
00:46:42.341                             : en:Not Harry's Part
00:49:06.777                             : en:Putting His Finger on It
00:52:15.590                             : en:Not a Movie
00:56:11.076                             : en:Frying Pan and Fire
00:59:23.893                             : en:Macarthur Park Mayhem
01:02:11.936                             : en:Bang Bang
01:05:45.566                             : en:Dog Food
01:07:15.531                             : en:Unfinished
01:11:07.888                             : en:Dream Girl Confesses
01:15:56.552                             : en:Right Out of a Book
01:19:11.830                             : en:Russian Roulette
01:22:51.341                             : en:Stop Helping
01:26:11.040                             : en:Body Snatcher
01:28:49.991                             : en:Captain Magic
01:32:10.691                             : en:One for the Books
01:35:23.968                             : en:Big Tough Guys
01:38:30.321                             : en:End Credits

_________________
[Торрент-статистика]
[Профиль]  [ЛС] 
Показать сообщения:    
Ответить на тему

Текущее время: Сегодня 00:38

Часовой пояс: GMT + 4



Вы не можете начинать темы
Вы не можете отвечать на сообщения
Вы не можете редактировать свои сообщения
Вы не можете удалять свои сообщения
Вы не можете голосовать в опросах
Вы не можете прикреплять файлы к сообщениям
Вы не можете скачивать файлы