WTF! Какого черта? / N'importe qui ( Рафаэль Фридман / Raphaël Frydman) [2014 г., комедия, WEB-DL 720p] iTunes

Ответить на тему
 
Автор
Сообщение

awk05 ®

Пол:

Стаж: 8 лет 9 месяцев

Сообщений: 1334

Репутация: 278 [+] [-]

Откуда: Западная Украина Ривне

Пост 19-Авг-2014 02:41

[Цитировать] 

--WTF! Какого черта? / N'importe qui-- Год выпуска 2014
Страна: Франция
Жанр: комедия
Продолжительность: 01:17:32
Перевод: Дублированное [iTunes]
Субтитры: отсутствуют--Режиссёр: Рафаэль Фридман / Raphaël Frydman --
В ролях: Реми Гайяр, Патрик Рейналь, Франк Брунэо, Элбан Иванофф, Николь Феррони, Сильвен Катан, Бриджитт Моати--Описание: Реми Гайяр — реальный персонаж Всемирной сети, троллер, провокатор, самый популярный комик инета Европы. Полтора миллиарда просмотров и миллионы фанатов. Пришел день, и он решил остепениться: женился, устроился на работу на автостоянке, пообещал беременной жене, что тоже «уходит в декрет» и бросает свои шалости.--Качество видео: BDRip 720p
Формат видео: MKV
Видео кодек: AVC (High@L4.1)
Аудио кодек: AC-3
Видео: AVC, 1280@960x720 (16:9), 25.000 fps, 3 865 Kbps (0.224 bit/pixel)
Аудио: AC-3, 48.0 KHz, 6 ch, 384 Kbps, CBR, 16 bits [Русский] -- --

Знаете ли Вы, что...

Точкой отсчета своей карьеры Реми Гайяр считает день, когда ему отказали при приеме на работу продавцом в обувной магазин. После этого разочарования артист решил больше не заниматься ничем серьезным.

Кадры из фильма

Тех. данные (MI)

Код:
Общее
Уникальный идентификатор                 : 195478988685546794819165779233281715224 (0x930FE23F756CF6C1A29AFF7FC210AC18)
Полное имя                               : E:\тест\WTF.Kakogo.hera.2014.WEB-DL.720p.mkv
Формат                                   : Matroska
Версия формата                           : Version 4 / Version 2
Размер файла                             : 2,35 Гбайт
Продолжительность                        : 1 ч. 17 м.
Общий поток                              : 4335 Кбит/сек
Дата кодирования                         : UTC 2014-08-17 19:56:04
Программа кодирования                    : mkvmerge v6.9.1 ('Blue Panther') 64bit built on Apr 18 2014 18:23:38
Библиотека кодирования                   : libebml v1.3.0 + libmatroska v1.4.1
Видео
Идентификатор                            : 1
Формат                                   : AVC
Формат/Информация                        : Advanced Video Codec
Профиль формата                          : Main@L3.1
Параметр CABAC формата                   : Нет
Параметр ReFrames формата                : 2 кадра
Идентификатор кодека                     : V_MPEG4/ISO/AVC
Продолжительность                        : 1 ч. 17 м.
Битрейт                                  : 3865 Кбит/сек
Ширина                                   : 960 пикселей
Высота                                   : 720 пикселей
Соотношение сторон                       : 16:9
Режим частоты кадров                     : Постоянный
Частота кадров                           : 25,000 кадров/сек
Цветовое пространство                    : YUV
Субдискретизация насыщенности            : 4:2:0
Битовая глубина                          : 8 бит
Тип развёртки                            : Прогрессивная
Бит/(Пиксели*Кадры)                      : 0.224
Размер потока                            : 2,09 Гбайт (89%)
Язык                                     : English
Default                                  : Да
Forced                                   : Нет
Основные цвета                           : BT.709
Характеристики трансфера                 : BT.709
Коэффициенты матрицы                     : BT.709
Аудио
Идентификатор                            : 2
Формат                                   : AC-3
Формат/Информация                        : Audio Coding 3
Расширение режима                        : CM (complete main)
Параметр Endianness формата              : Big
Идентификатор кодека                     : A_AC3
Продолжительность                        : 1 ч. 17 м.
Вид битрейта                             : Постоянный
Битрейт                                  : 384 Кбит/сек
Каналы                                   : 6 каналов
Расположение каналов                     : Front: L C R, Side: L R, LFE
Частота                                  : 48,0 КГц
Битовая глубина                          : 16 бит
Метод сжатия                             : С потерями
Размер потока                            : 213 Мбайт (9%)
Язык                                     : Russian
Default                                  : Да
Forced                                   : Нет
Меню
00:00:00.000                             : en:Глава 1
00:06:23.000                             : en:Глава 2
00:11:24.000                             : en:Глава 3
00:16:28.000                             : en:Глава 4
00:21:37.000                             : en:Глава 5
00:26:40.000                             : en:Глава 6
00:31:45.000                             : en:Глава 7
00:36:46.000                             : en:Глава 8
00:41:51.000                             : en:Глава 9
00:46:54.000                             : en:Глава 10
00:51:57.000                             : en:Глава 11
00:57:03.000                             : en:Глава 12
01:02:38.000                             : en:Глава 13
01:07:40.000                             : en:Глава 14
01:13:09.000                             : en:Глава 15

_________________
[Торрент-статистика]
[Профиль]  [ЛС] 
Показать сообщения:    
Ответить на тему

Текущее время: Сегодня 11:02

Часовой пояс: GMT + 4



Вы не можете начинать темы
Вы не можете отвечать на сообщения
Вы не можете редактировать свои сообщения
Вы не можете удалять свои сообщения
Вы не можете голосовать в опросах
Вы не можете прикреплять файлы к сообщениям
Вы не можете скачивать файлы