47 ронинов / 47 Ronin (Карл Ринш / Carl Rinsch) [2013 г., фэнтези, боевик, приключения, BDRip 1080p] Dub + Original Eng + subs (Rus, RusF, Ukr, Eng, Eng SDH, Eng SDH Colored)

Ответить на тему
 
Автор
Сообщение

awk05 ®

Пол:

Стаж: 8 лет 9 месяцев

Сообщений: 1334

Репутация: 278 [+] [-]

Откуда: Западная Украина Ривне

Пост 17-Авг-2014 04:45

[Цитировать] 

--47 ронинов / 47 Ronin«This Christmas, seize eternity»-- Год выпуска: 2013
Выпущено: США
Жанр: фэнтези, боевик, приключения
Продолжительность: 01:58:43
Перевод: Профессиональный (полное дублирование) СEE+Оригинал English
Субтитры: Russian (Forced, iTunes), Russian (iTunes), Ukrainian (Blu-ray CEE), English (SDH, iTunes), English, English (SDH), English (SDH-COLORED)--Режиссер: Карл Ринш / Carl Rinsch--В ролях: Киану Ривз (Kai), Хироюки Санада (Ôishi), Ко Шибасаки (Mika), Таданобу Асано (Lord Kira), Мин Танака (Lord Asano), Джин Аканиши (Chikara), Масаёси Ханеда (Yasuno), Хироси Согабэ (Hazama), Такато Йонемото (Basho), Хироси Ямада (Hara), Кэри-Хироюки Тагава (Shogun Tsunayoshi), Нил Финглтон (Lovecraftian Samurai), Ринко Кикути (Witch), Того Игава (Tengu Lord), и др.--О фильме: Таинственный странник, преданный всеми, проданный в рабство, избранный судьбой вершить месть, станет одним из 47 воинов, бросивших вызов смерти. Явившись из другого мира, он восстанет против темных сил, чтобы защитить свою запретную любовь.--Качество видео: BDRip 1080p
Формат видео: MKV
Видео кодек: AVC (High@L4.1)
Аудио кодек: DTS
Видео: AVC, 1920x800 (2.405:1), 23.976 fps, 14.5 Mbps (0.383 bit/pixel)
Аудио 1: DTS, 48.0 KHz, 6 ch, 768 Kbps, CBR, 24 bits [Русский]
Аудио 2: DTS, 48.0 KHz, 6 ch, 1536 Kbps, CBR, 24 bits [Английский] -- --

Знаете ли Вы, что...

* По словам Киану Ривза, специально ради актеров второго плана съемки сначала проходили на японском и уже затем на английском языке.
* Вместе с Киану Ривзом роли были отданы пяти японским актерам (Хироюки Санада, Таданобу Асано, Ринко Кикути, Ко Шибасаки и Джин Аканиши), чтобы сделать историю более достоверной, вместо того, чтобы выбрать актеров, узнаваемых в США.
* Стрелы для фильма были сделаны известным европейским мастером Майклом Рипом (Michael Reape). Небольшое количество стрел было выполнено в «музейном» качестве для съемки крупным планом.
* Это режиссерский дебют Карла Ринша.
* По словам художника по костюмам Пенни Роуз, у всех были костюмы, подогнанные в соответствии с фоном: «Основываясь на культуре, форма одежды должна была быть одной - кимоно, но мы совершили своего рода «модный» переворот в этом направлении и добавили различных цветов».
* Специально для фильма на съемочную площадку в Лондон из Италии привезли 300 побегов бамбука, каждый высотой по 15 метров, и метровые деревья бонсай возрастом более ста .

Кадры из фильма

Тех. данные (MI)

Код:
Формат : Matroska
Версия формата : Version 4 / Version 2
Размер файла : 13,9 Гбайт
Продолжительность : 1 ч. 58 м.
Общий поток : 16,7 Мбит/сек
Название фильма : 47 Ronin (2013) - Release for HDCLUB
Дата кодирования : UTC 2014-04-24 03:56:52
Программа кодирования : mkvmerge v6.1.0 ('Old Devil') built on Mar 2 2013 14:32:37
Библиотека кодирования : libebml v1.3.0 + libmatroska v1.4.0
[br]Видео
Идентификатор : 1
Формат : AVC
Формат/Информация : Advanced Video Codec
Профиль формата : High@L4.1
Параметр CABAC формата : Да
Параметр ReFrames формата : 5 кадров
Идентификатор кодека : V_MPEG4/ISO/AVC
Продолжительность : 1 ч. 58 м.
Битрейт : 14,1 Мбит/сек
Ширина : 1920 пикселей
Высота : 800 пикселей
Соотношение сторон : 2,40:1
Режим частоты кадров : Постоянный
Частота кадров : 23,976 кадра/сек
Цветовое пространство : YUV
Субдискретизация насыщенности : 4:2:0
Битовая глубина : 8 бит
Тип развёртки : Прогрессивная
Бит/(Пиксели*Кадры) : 0.383
Размер потока : 11,7 Гбайт (84%)
Заголовок : 47 Ronin (2013) - Release for HDCLUB
Библиотека кодирования : x264 core 140 r2377+40 929f149 tMod [8-bit@4:2:0 X86]
Настройки программы : cabac=1 / ref=5 / deblock=1:-3:-3 / analyse=0x3:0x113 / me=tesa / subme=10 / psy=1 / fade_compensate=0.00 / psy_rd=1.10:0.00 / mixed_ref=1 / me_range=24 / chroma_me=1 / trellis=2 / 8x8dct=1 / cqm=0 / deadzone=21,11 / fast_pskip=0 / chroma_qp_offset=-2 / threads=12 / lookahead_threads=2 / sliced_threads=0 / nr=0 / decimate=0 / interlaced=0 / bluray_compat=0 / constrained_intra=0 / fgo=0 / bframes=8 / b_pyramid=2 / b_adapt=2 / b_bias=0 / direct=3 / weightb=1 / open_gop=0 / weightp=2 / keyint=250 / keyint_min=23 / scenecut=40 / intra_refresh=0 / rc=crf / mbtree=0 / crf=17.0000 / qcomp=0.70 / qpmin=0:0:0 / qpmax=69:69:69 / qpstep=4 / ip_ratio=1.30 / pb_ratio=1.10 / aq=4:0.75 / aq-sensitivity=10.00 / aq-factor=1.00:1.00:1.00 / aq2=0 / aq3=0
Язык : English
Default : Да
Forced : Нет
[br]Аудио #1
Идентификатор : 2
Формат : DTS
Формат/Информация : Digital Theater Systems
Режим : 16
Параметр Endianness формата : Big
Идентификатор кодека : A_DTS
Продолжительность : 1 ч. 58 м.
Вид битрейта : Постоянный
Битрейт : 768 Кбит/сек
Каналы : 6 каналов
Расположение каналов : Front: L C R, Side: L R, LFE
Частота : 48,0 КГц
Битовая глубина : 24 бит
Метод сжатия : С потерями
Размер потока : 652 Мбайт (5%)
Заголовок : DTS 5.1 @ 768 kbps - DUB, Blu-ray CEE
Язык : Russian
Default : Да
Forced : Нет
[br]Аудио #2
Идентификатор : 3
Формат : DTS
Формат/Информация : Digital Theater Systems
Режим : 16
Параметр Endianness формата : Big
Идентификатор кодека : A_DTS
Продолжительность : 1 ч. 58 м.
Вид битрейта : Постоянный
Битрейт : 1509 Кбит/сек
Каналы : 6 каналов
Расположение каналов : Front: L C R, Side: L R, LFE
Частота : 48,0 КГц
Битовая глубина : 24 бит
Метод сжатия : С потерями
Размер потока : 1,25 Гбайт (9%)
Заголовок : DTS 5.1 @ 1536 kbps
Язык : English
Default : Нет
Forced : Нет
[br]Текст #1
Идентификатор : 4
Формат : UTF-8
Идентификатор кодека : S_TEXT/UTF8
Идентификатор кодека/Информация : UTF-8 Plain Text
Заголовок : Forced
Язык : Russian
Default : Да
Forced : Нет
[br]Текст #2
Идентификатор : 5
Формат : UTF-8
Идентификатор кодека : S_TEXT/UTF8
Идентификатор кодека/Информация : UTF-8 Plain Text
Заголовок : iTunes
Язык : Russian
Default : Нет
Forced : Нет
[br]Текст #3
Идентификатор : 6
Формат : UTF-8
Идентификатор кодека : S_TEXT/UTF8
Идентификатор кодека/Информация : UTF-8 Plain Text
Заголовок : iTunes
Язык : Ukrainian
Default : Нет
Forced : Нет
[br]Текст #4
Идентификатор : 7
Формат : UTF-8
Идентификатор кодека : S_TEXT/UTF8
Идентификатор кодека/Информация : UTF-8 Plain Text
Заголовок : SDH, iTunes
Язык : English
Default : Нет
Forced : Нет
[br]Текст #5
Идентификатор : 8
Формат : UTF-8
Идентификатор кодека : S_TEXT/UTF8
Идентификатор кодека/Информация : UTF-8 Plain Text
Язык : English
Default : Нет
Forced : Нет
[br]Текст #6
Идентификатор : 9
Формат : UTF-8
Идентификатор кодека : S_TEXT/UTF8
Идентификатор кодека/Информация : UTF-8 Plain Text
Заголовок : SDH
Язык : English
Default : Нет
Forced : Нет
[br]Текст #7
Идентификатор : 10
Формат : UTF-8
Идентификатор кодека : S_TEXT/UTF8
Идентификатор кодека/Информация : UTF-8 Plain Text
Заголовок : SDH-COLORED
Язык : English
Default : Нет
Forced : Нет
[br]Меню
00:00:00.000 : :00:00:00.000
00:04:27.559 : :00:04:27.559
00:11:12.088 : :00:11:12.088
00:16:27.820 : :00:16:27.820
00:20:11.836 : :00:20:11.836
00:26:52.319 : :00:26:52.319
00:31:02.944 : :00:31:02.944
00:36:10.627 : :00:36:10.627
00:43:36.614 : :00:43:36.614
00:50:14.511 : :00:50:14.511
00:54:59.421 : :00:54:59.421
00:59:54.049 : :00:59:54.049
01:09:57.735 : :01:09:57.735
01:13:59.018 : :01:13:59.018
01:19:12.247 : :01:19:12.247
01:24:17.386 : :01:24:17.386
01:33:00.825 : :01:33:00.825
01:38:55.555 : :01:38:55.555
01:44:41.609 : :01:44:41.609
01:48:38.303 : :01:48:38.303

_________________
[Торрент-статистика]
[Профиль]  [ЛС] 
Показать сообщения:    
Ответить на тему

Текущее время: Сегодня 06:30

Часовой пояс: GMT + 4



Вы не можете начинать темы
Вы не можете отвечать на сообщения
Вы не можете редактировать свои сообщения
Вы не можете удалять свои сообщения
Вы не можете голосовать в опросах
Вы не можете прикреплять файлы к сообщениям
Вы не можете скачивать файлы