13-й район: Кирпичные особняки / Brick Mansions (Камиль Деламарр / Camille Delamarre) [2014, Франция, Канада, боевик, криминал, BDRip, 720p] Dub Студия "CineLab SoundMix"

Ответить на тему
 
Автор
Сообщение

awk05 ®

Пол:

Стаж: 8 лет 10 месяцев

Сообщений: 1334

Репутация: 278 [+] [-]

Откуда: Западная Украина Ривне

Пост 17-Авг-2014 04:04

[Цитировать] 

--13-й район: Кирпичные особняки / Brick Mansions«Undercover and never Outgunned»-- Год выпуска 2014
Страна: Боевик, драма, криминал
Жанр: Франция, Канада
Сезон/Серия: Сезон:1 /Серия 1-22 из 22
Перевод: Профессиональный (дублированный) + Original
Озвучка / Автор перевода: Студия "CineLab SoundMix"
Субтитры: отсутствуют--Режиссёр: Камиль Деламарр / Camille Delamarre --
В ролях: Пол Уокер (Damien Collier), Давид Белль (Lino), RZA (Tremaine Alexander), Гучи Бой (K2), Каталина Денис (Lola), Аиша Исса (Rayzah), Карло Рота (George the Greek), Андреас Апергис (Berringer), Ричард Земан (Major Reno), Роберт Мэйллет (Yeti), Брюс Рэмсей (Mayor), Фрэнк Фонтейн (Grandfather Collier), и др.--Описание: История детектива под прикрытием, ищущего оружие массового уничтожения, похищенное наркодилером гетто Кирпичные дома. Детектив обращается за помощью к знатоку района Лино, единственному человеку, который не боится бандитов.--Качество видео: BDRip 720p
Формат видео: MKV
Видео кодек: AVC (High@L4.1)
Аудио кодек: AC-3, DTS
Видео: AVC, 1280x536 (2.35:1), 24.000 fps, 5 800 Kbps (0.352 bit/pixel)
Аудио 1: AC-3, 48.0 KHz, 6 ch, 384 Kbps, CBR, 16 bits [Русский]
Аудио 2: DTS, 48.0 KHz, 6 ch, 1510 Kbps, CBR, 24 bits [Английский] -- --

Знаете ли Вы, что...

* Фильм является ремейком французского фильма «13-й район» (2004), в котором Давид Белль сыграл ту же роль.
* Давид Белль не разговаривает свободно на английском языке и во время съемок в его речи сильно чувствовался французский акцент. Чтобы его персонаж выглядел более убедительно, все его диалоги дублировал Вин Дизель.
* Герои на протяжении всего фильма получают множество ударов в челюсть, нос и другие части тела, но никто их них как будто не чувствует боли.
* Когда Дэмиэн прыгает с крыши за Лино, то хватается руками за подоконник с кучей осколков от разбитого стекла. По идее его руки должны были быть изрезаны и изранены, но в последующих кадрах его руки и пальцы целы и невридимы.
* Когда Дэмиен и Лино врезаются в кирпичный дом на большом фургоне, показывают кадры из салона машины, в этот момент видно, что это уже интерьер Mustang GT350, а не фургона.
* Когда Лино и Лола похищают Тремейна, Лола ставит ручку коробки передач в положение «Drive», а затем жмет на газ, при этом машина едет в обратном направлении.

Кадры из фильма

Тех. данные (MI)

Код:
Format : Matroska
Format version : Version 2
File size : 4.84 GiB
Duration : 1h 30mn
Overall bit rate : 7 693 Kbps
Encoded date : UTC 2014-08-15 15:21:14
Writing application : mkvmerge v7.1.0 ('Good Love') 64bit built on Jul 27 2014 13:06:55
Writing library : libebml v1.3.0 + libmatroska v1.4.1
Video
ID : 1
Format : AVC
Format/Info : Advanced Video Codec
Format profile : High@L4.1
Format settings, CABAC : Yes
Format settings, ReFrames : 12 frames
Codec ID : V_MPEG4/ISO/AVC
Bit rate : 5 800 Kbps
Width : 1 280 pixels
Height : 536 pixels
Display aspect ratio : 2.40:1
Frame rate mode : Variable
Original frame rate : 24.000 fps
Color space : YUV
Chroma subsampling : 4:2:0
Bit depth : 8 bits
Scan type : Progressive
Bits/(Pixel*Frame) : 0.352
Writing library : x264 core 142 r2431+42 c69a006 tMod [8-bit@4:2:0 X86_64]
Encoding settings : cabac=1 / ref=12 / deblock=1:-3:-3 / analyse=0x3:0x113 / me=umh / subme=11 / psy=1 / fade_compensate=0.00 / psy_rd=0.90:0.05 / mixed_ref=1 / me_range=32 / chroma_me=1 / trellis=2 / 8x8dct=1 / cqm=0 / deadzone=21,11 / fast_pskip=0 / chroma_qp_offset=-3 / threads=18 / lookahead_threads=3 / sliced_threads=0 / nr=0 / decimate=0 / interlaced=0 / bluray_compat=0 / constrained_intra=0 / fgo=0 / bframes=8 / b_pyramid=2 / b_adapt=2 / b_bias=0 / direct=3 / weightb=1 / open_gop=0 / weightp=2 / keyint=240 / keyint_min=24 / scenecut=40 / intra_refresh=0 / rc_lookahead=40 / rc=2pass / mbtree=0 / bitrate=5800 / ratetol=1.0 / qcomp=0.70 / qpmin=0:0:0 / qpmax=69:69:69 / qpstep=4 / cplxblur=20.0 / qblur=0.5 / vbv_maxrate=40000 / vbv_bufsize=30000 / nal_hrd=none / filler=0 / ip_ratio=1.20 / pb_ratio=1.20 / aq=4:0.85 / aq-sensitivity=10.00 / aq-factor=1.00:1.00:1.00 / aq2=0 / aq3=0
Language : English
Default : Yes
Forced : No
Audio #1
ID : 2
Format : DTS
Format/Info : Digital Theater Systems
Codec ID : A_DTS
Duration : 1h 30mn
Bit rate mode : Constant
Bit rate : 1 510 Kbps
Channel(s) : 6 channels
Channel positions : Front: L C R, Side: L R, LFE
Sampling rate : 48.0 KHz
Bit depth : 16 bits
Compression mode : Lossy
Stream size : 974 MiB (20%)
Language : English
Default : No
Forced : No
Audio #2
ID : 3
Format : AC-3
Format/Info : Audio Coding 3
Mode extension : CM (complete main)
Format settings, Endianness : Big
Codec ID : A_AC3
Duration : 1h 30mn
Bit rate mode : Constant
Bit rate : 384 Kbps
Channel(s) : 2 channels
Channel positions : Front: L R
Sampling rate : 48.0 KHz
Bit depth : 16 bits
Compression mode : Lossy
Stream size : 248 MiB (5%)
Default : Yes
Forced : No

_________________
[Торрент-статистика]
[Профиль]  [ЛС] 
Показать сообщения:    
Ответить на тему

Текущее время: Сегодня 04:00

Часовой пояс: GMT + 4



Вы не можете начинать темы
Вы не можете отвечать на сообщения
Вы не можете редактировать свои сообщения
Вы не можете удалять свои сообщения
Вы не можете голосовать в опросах
Вы не можете прикреплять файлы к сообщениям
Вы не можете скачивать файлы