Звездные войны / Star Wars [Антология] (Джордж Лукас / George Lucas)[1977, 1980, 1983, 1999, 2002, 2005 г., Фантастика, Фэнтези, Боевик, BDRip 1080p [60 fps]]DUB + Original + Sub

Ответить на тему
 
Автор
Сообщение

awk05 ®

Пол:

Стаж: 8 лет 9 месяцев

Сообщений: 1334

Репутация: 278 [+] [-]

Откуда: Западная Украина Ривне

Пост 14-Авг-2014 21:47

[Цитировать] 

--Звездные войны / Star Wars [Антология]-- Жанр: Фантастика, Фэнтези, Боевик
Года производства: 1977, 1980, 1983, 1999, 2002, 2005
Произведено: США
Продолжительность: 02:16:11; 02:22:28; 02:20:06; 02:04:45; 02:07:21; 02:14:47
Перевод: Профессиональный (дублированый)
Субтитры: Russian, English--Режиссер: Джордж Лукас / George Lucas--В ролях: Лиам Нисон (Qui-Gon Jinn), Юэн МакГрегор (Obi-Wan Kenobi), Натали Портман (Queen Amidala / Padmé), Джейк Ллойд (Anakin Skywalker), Иэн МакДайармид (Senator Palpatine), Пернилла Аугуст (Shmi Skywalker), Оливер Форд Дэвис (Sio Bibble), Хью Куарши (Captain Panaka), Ахмед Бест (Jar Jar Binks, озвучка), Энтони Дэниелс (C-3PO, озвучка), Бейкер (R2-D2), Фрэнк Оз (Yoda, озвучка),Хейден Кристенсен (Anakin Skywalker), Кристофер Ли (Count Dooku, Darth Tyranus), Сэмюэл Л. Джексон (Mace Windu), Темуэра Моррисон (Jango Fett), Дэниэл Логан (Boba Fett), Джимми Смитс (Senator Bail Organa), Джек Томпсон (Cliegg Lars),Киша Касл-Хьюз (Queen of Naboo), Сайлас Карсон (Ki-Adi-Mundi / Nute Gunray), Джей Лагаая (Captain Typho),Марк Хэмилл (Luke Skywalker,), Харрисон Форд (Han Solo,), Кэрри Фишер (Princess Leia Organa), Питер Кашинг (Grand Moff Tarkin), Алек Гиннесс (Ben Obi-Wan Kenobi,), Энтони Дэниелс (C-3PO), Кенни Бейкер (R2-D2), Питер Мейхью (Chewbacca), Дэвид Праус (Darth Vader), Джеймс Эрл Джонс (Darth Vader, озвучка,), Фил Браун (Uncle Owen), Шила Фрейзер (Aunt Beru),Билли Ди Уильямс (Lando Calrissian), Джереми Буллок (Boba Fett, Imperial Officer at Cloud City), Джон Холлис (Lando's aide),Себастьян Шоу (Anakin Skywalker), Иэн МакДайармид (The Emperor)--Описание: Звёздные во́йны (англ. Star Wars) — фантастическая сага, задуманная американским режиссёром Джорджем Лукасом в начале 1970-х годов, и позднее расширенная. Первый фильм назывался «Звездные войны», но после выхода следующего эпизода, у первого фильма появился подзаголовок «Новая надежда». Первый фильм вышел 25 мая 1977, и имел огромное влияние на международную культуру, однако произведение по вселенной — одноимённая книга-новеллизация — появилось ещё в 1976 году, так как продюсеры опасались провала фильма в прокате. Спустя двадцать два года после выхода первого фильма на экраны был выпущен Star Wars: Episode I и Лукас начал режиссировать вторую трилогию. По его признанию, идея фильма возникла под влиянием исследований Джозефа Кэмпбелла по сравнительной мифологии («Герой с тысячью лицами» и др.)--Качество видео: BDRip 1080p [60 fps]
Формат видео: MKV
Видео кодек: AVC (High@L4.1)
Аудио кодек: AC-3
Видео Эпизод 1: AVC, 1920x816 (2.35:1), 59.940 fps, 13.0 Mbps (0.138 bit/pixel)
Видео Эпизод 2: AVC, 1920x816 (2.35:1), 59.940 fps, 13.1 Mbps (0.140 bit/pixel)
Видео Эпизод 3: AVC, 1920x816 (2.35:1), 59.940 fps, 13.9 Mbps (0.148 bit/pixel)
Видео Эпизод 4: AVC, 1920x816 (2.35:1), 59.940 fps, 11.1 Mbps (0.118 bit/pixel)
Видео Эпизод 5: AVC, 1920x816 (2.35:1), 59.940 fps, 12.4 Mbps (0.132 bit/pixel)
Видео Эпизод 6: AVC, 1920x816 (2.35:1), 59.940 fps, 13.1 Mbps (0.140 bit/pixel)
Аудио 1: AC-3, 48.0 KHz, 6 ch, 640 Kbps, CBR, 16 bits [Русский]
Аудио 2: AC-3, 48.0 KHz, 6 ch, 640 Kbps, CBR, 16 bits [Английский] --

Эпизод 1

--Звездные войны: Эпизод 1 - Скрытая угрозаStar Wars: Episode I - The Phantom Menace-- Год выпуска: 1999
Страна: США
Жанр: фантастика, боевик, фэнтези, приключения
Продолжительность: 02:16:11
Перевод: Профессиональный (дублированый)
Субтитры: Russian, English--Режиссер: Джордж Лукас / George Lucas--В ролях: Лиам Нисон (Qui-Gon Jinn), Юэн МакГрегор (Obi-Wan Kenobi), Натали Портман (Queen Amidala / Padmé), Джейк Ллойд (Anakin Skywalker), Иэн МакДайармид (Senator Palpatine), Пернилла Аугуст (Shmi Skywalker), Оливер Форд Дэвис (Sio Bibble), Хью Куарши (Captain Panaka), Ахмед Бест (Jar Jar Binks, озвучка), Энтони Дэниелс (C-3PO, озвучка), Бейкер (R2-D2), Фрэнк Оз (Yoda, озвучка)--Описание: Первый эпизод знакомит нас с юным Анакином Скайуокером, мальчиком с особым даром, не осознающим, что путешествие, в которое он отправился, превратит его в зловещего Дарта Вейдера. Оби-Ван Кеноби, мудрый старый джедай из первых частей фильма, пока еще только молодой отважный ученик. Это то самое время, когда рыцари-джедаи являются хранителями мира и спокойствия в нестабильной галактике, и юная королева сражается за спасение своего народа. А в тени таится темная сила, выжидая нужного момента для атаки.
Мирная и процветающая планета Набу. Торговая федерация, не желая платить налоги, вступает в прямой конфликт с королевой Амидалой, правящей на планете, что приводит к войне. На стороне королевы и республики в ней участвуют два рыцаря-джедая: учитель и ученик, Квай-Гон-Джин и Оби-Ван Кеноби…--Качество видео: BDRip 1080p [60 fps]
Формат видео: MKV
Видео кодек: AVC (High@L4.1)
Аудио кодек: AC-3
Видео: AVC, 1920x816 (2.35:1), 59.940 fps, 13.0 Mbps (0.138 bit/pixel)
Аудио 1: AC-3, 48.0 KHz, 6 ch, 640 Kbps, CBR, 16 bits [Русский]
Аудио 2: AC-3, 48.0 KHz, 6 ch, 640 Kbps, CBR, 16 bits [Английский] -- --

Кадры из фильма

Тех. данные (MI)

Код:
General
Unique ID                                : 249956713207622349403647149861885819229 (0xBC0BE970C0A68499920292E0EAB1B95D)
Format                                   : Matroska
Overall bit rate                         : 14.5 Mbps
Encoded date                             : UTC 2014-06-29 03:10:51
Writing application                      : mkvmerge v7.0.0 ('Where We Going') 64bit built on Jun  9 2014 15:16:27
Writing library                          : libebml v1.3.0 + libmatroska v1.4.1
_STATISTICS_WRITING_APP                  : mkvmerge v7.0.0 ('Where We Going') 64bit built on Jun  9 2014 15:16:27
_STATISTICS_WRITING_DATE_UTC             : 2014-06-29 03:10:51
_STATISTICS_TAGS                         : BPS DURATION NUMBER_OF_FRAMES NUMBER_OF_BYTES
DURATION                                 : 00:00:01.875000000
NUMBER_OF_FRAMES                         : 1
NUMBER_OF_BYTES                          : 35
Video
ID                                       : 1
Format                                   : AVC
Format/Info                              : Advanced Video Codec
Format profile                           : High@L4.1
Format settings, CABAC                   : Yes
Format settings, ReFrames                : 4 frames
Codec ID                                 : V_MPEG4/ISO/AVC
Duration                                 : 1mn 8s
Bit rate                                 : 13.0 Mbps
Width                                    : 1 920 pixels
Height                                   : 816 pixels
Display aspect ratio                     : 2.35:1
Frame rate mode                          : Constant
Frame rate                               : 59.880 fps
Original frame rate                      : 59.940 fps
Color space                              : YUV
Chroma subsampling                       : 4:2:0
Bit depth                                : 8 bits
Scan type                                : Progressive
Bits/(Pixel*Frame)                       : 0.138
Stream size                              : 107 MiB (89%)
Language                                 : English
Default                                  : Yes
Forced                                   : No
_STATISTICS_WRITING_APP                  : mkvmerge v7.0.0 ('Where We Going') 64bit built on Jun  9 2014 15:16:27
_STATISTICS_WRITING_DATE_UTC             : 2014-06-29 03:10:51
_STATISTICS_TAGS                         : BPS DURATION NUMBER_OF_FRAMES NUMBER_OF_BYTES
DURATION                                 : 00:01:08.836000000
NUMBER_OF_FRAMES                         : 4126
NUMBER_OF_BYTES                          : 114136410
Audio #1
ID                                       : 2
Format                                   : AC-3
Format/Info                              : Audio Coding 3
Mode extension                           : CM (complete main)
Format settings, Endianness              : Big
Codec ID                                 : A_AC3
Duration                                 : 1mn 8s
Bit rate mode                            : Constant
Bit rate                                 : 640 Kbps
Channel(s)                               : 6 channels
Channel positions                        : Front: L C R, Side: L R, LFE
Sampling rate                            : 48.0 KHz
Bit depth                                : 16 bits
Compression mode                         : Lossy
Delay relative to video                  : 28ms
Stream size                              : 5.25 MiB (4%)
Title                                    : Dub
Language                                 : Russian
Default                                  : Yes
Forced                                   : No
Audio #2
ID                                       : 3
Format                                   : AC-3
Format/Info                              : Audio Coding 3
Mode extension                           : CM (complete main)
Format settings, Endianness              : Big
Codec ID                                 : A_AC3
Duration                                 : 1mn 8s
Bit rate mode                            : Constant
Bit rate                                 : 640 Kbps
Channel(s)                               : 6 channels
Channel positions                        : Front: L C R, Side: L R, LFE
Sampling rate                            : 48.0 KHz
Bit depth                                : 16 bits
Compression mode                         : Lossy
Delay relative to video                  : 28ms
Stream size                              : 5.25 MiB (4%)
Title                                    : Original
Language                                 : English
Default                                  : No
Forced                                   : No
Text #1
ID                                       : 4
Format                                   : UTF-8
Codec ID                                 : S_TEXT/UTF8
Codec ID/Info                            : UTF-8 Plain Text
Title                                    : Forced
Language                                 : Russian
Default                                  : Yes
Forced                                   : No
Text #2
ID                                       : 5
Format                                   : UTF-8
Codec ID                                 : S_TEXT/UTF8
Codec ID/Info                            : UTF-8 Plain Text
Title                                    : Full
Language                                 : Russian
Default                                  : No
Forced                                   : No
Text #3
ID                                       : 6
Format                                   : UTF-8
Codec ID                                 : S_TEXT/UTF8
Codec ID/Info                            : UTF-8 Plain Text
Title                                    : Full
Language                                 : English
Default                                  : No
Forced                                   : No
Menu
00:00:00.000                             : en:Chapter 20

Эпизод 2

--Звездные войны: Эпизод 2 - Атака клоновStar Wars: Episode II - Attack of the Clones-- Год выпуска: 2002
Страна: США
Жанр: фантастика, боевик, фэнтези, приключения
Продолжительность: 02:22:27
Перевод: Профессиональный (дублированый)
Субтитры: Russian, English--Режиссер: Джордж Лукас / George Lucas--В ролях: Юэн МакГрегор (Obi-Wan Kenobi), Натали Портман (Senator Padmé Amidala), Хейден Кристенсен (Anakin Skywalker), Кристофер Ли (Count Dooku, Darth Tyranus), Сэмюэл Л. Джексон (Mace Windu), Фрэнк Оз (Yoda, озвучка), Иэн МакДайармид (Supreme Chancellor Palpatine, Darth Sidious), Пернилла Аугуст (Shmi Skywalker-Lars), Темуэра Моррисон (Jango Fett), Дэниэл Логан (Boba Fett), Джимми Смитс (Senator Bail Organa), Джек Томпсон (Cliegg Lars)--Описание: Действие разворачивается через 10 лет после событий, описанных в первом эпизоде знаменитой саги. Республика все глубже погружается в пучину противоречий и хаоса. Движение сепаратистов, представленное сотнями планет и могущественным альянсом корпораций, грозит стать новой угрозой для Галактики, с которой не смогут справиться даже джедаи.
Назревающий конфликт, заранее спланированный могущественными, но пока еще не разоблаченными силами, ведет к началу Клонических войн и к закату республики. Чтобы противостоять угрозе вселенских масштабов, Верховный канцлер Палпатин добивается консолидации власти в республике в своих руках и отдает приказ о создании республиканской армии для поддержки малочисленной группы джедаев в их борьбе с превосходящим противником.--Качество видео: BDRip 1080p [60 fps]
Формат видео: MKV
Видео кодек: AVC (High@L4.1)
Аудио кодек: AC-3
Видео: AVC, 1920x816 (2.35:1), 59.940 fps, 10.4 Mbps (0.111 bit/pixel)
Аудио 1: AC-3, 48.0 KHz, 6 ch, 640 Kbps, CBR, 16 bits [Русский]
Аудио 2: AC-3, 48.0 KHz, 6 ch, 640 Kbps, CBR, 16 bits [Английский] --

Кадры из фильма

Тех. данные (MI)

Код:
General
Unique ID                                : 246192746185041932897322902616515112330 (0xB936FF89D47F0DA4954FE9A4FF516D8A)
Format                                   : Matroska
Format version                           : Version 4 / Version 2
Overall bit rate                         : 11.9 Mbps
Encoded date                             : UTC 2014-06-29 03:12:33
Writing application                      : mkvmerge v7.0.0 ('Where We Going') 64bit built on Jun  9 2014 15:16:27
Writing library                          : libebml v1.3.0 + libmatroska v1.4.1
_STATISTICS_WRITING_APP                  : mkvmerge v7.0.0 ('Where We Going') 64bit built on Jun  9 2014 15:16:27
_STATISTICS_WRITING_DATE_UTC             : 2014-06-29 03:12:33
_STATISTICS_TAGS                         : BPS DURATION NUMBER_OF_FRAMES NUMBER_OF_BYTES
DURATION                                 : 00:01:00.435000000
NUMBER_OF_FRAMES                         : 5
NUMBER_OF_BYTES                          : 142
Video
ID                                       : 1
Format                                   : AVC
Format/Info                              : Advanced Video Codec
Format profile                           : High@L4.1
Format settings, CABAC                   : Yes
Format settings, ReFrames                : 4 frames
Codec ID                                 : V_MPEG4/ISO/AVC
Duration                                 : 1mn 1s
Bit rate                                 : 10.4 Mbps
Width                                    : 1 920 pixels
Height                                   : 816 pixels
Display aspect ratio                     : 2.35:1
Frame rate mode                          : Constant
Frame rate                               : 59.880 fps
Original frame rate                      : 59.940 fps
Color space                              : YUV
Chroma subsampling                       : 4:2:0
Bit depth                                : 8 bits
Scan type                                : Progressive
Bits/(Pixel*Frame)                       : 0.111
Stream size                              : 76.5 MiB (87%)
Language                                 : English
Default                                  : Yes
Forced                                   : No
_STATISTICS_WRITING_APP                  : mkvmerge v7.0.0 ('Where We Going') 64bit built on Jun  9 2014 15:16:27
_STATISTICS_WRITING_DATE_UTC             : 2014-06-29 03:12:33
_STATISTICS_TAGS                         : BPS DURATION NUMBER_OF_FRAMES NUMBER_OF_BYTES
DURATION                                 : 00:01:01.729000000
NUMBER_OF_FRAMES                         : 3700
NUMBER_OF_BYTES                          : 81991531
Audio #1
ID                                       : 2
Format                                   : AC-3
Format/Info                              : Audio Coding 3
Mode extension                           : CM (complete main)
Format settings, Endianness              : Big
Codec ID                                 : A_AC3
Duration                                 : 1mn 1s
Bit rate mode                            : Constant
Bit rate                                 : 640 Kbps
Channel(s)                               : 6 channels
Channel positions                        : Front: L C R, Side: L R, LFE
Sampling rate                            : 48.0 KHz
Bit depth                                : 16 bits
Compression mode                         : Lossy
Delay relative to video                  : 20ms
Stream size                              : 4.71 MiB (5%)
Title                                    : Dub
Language                                 : Russian
Default                                  : Yes
Forced                                   : No
Audio #2
ID                                       : 3
Format                                   : AC-3
Format/Info                              : Audio Coding 3
Mode extension                           : CM (complete main)
Format settings, Endianness              : Big
Codec ID                                 : A_AC3
Duration                                 : 1mn 1s
Bit rate mode                            : Constant
Bit rate                                 : 640 Kbps
Channel(s)                               : 6 channels
Channel positions                        : Front: L C R, Side: L R, LFE
Sampling rate                            : 48.0 KHz
Bit depth                                : 16 bits
Compression mode                         : Lossy
Delay relative to video                  : 20ms
Stream size                              : 4.71 MiB (5%)
Title                                    : Original
Language                                 : English
Default                                  : No
Forced                                   : No
Text #1
ID                                       : 4
Format                                   : UTF-8
Codec ID                                 : S_TEXT/UTF8
Codec ID/Info                            : UTF-8 Plain Text
Title                                    : Forced
Language                                 : Russian
Default                                  : Yes
Forced                                   : No
Text #2
ID                                       : 5
Format                                   : UTF-8
Codec ID                                 : S_TEXT/UTF8
Codec ID/Info                            : UTF-8 Plain Text
Title                                    : Full
Language                                 : Russian
Default                                  : No
Forced                                   : No
Text #3
ID                                       : 6
Format                                   : UTF-8
Codec ID                                 : S_TEXT/UTF8
Codec ID/Info                            : UTF-8 Plain Text
Title                                    : Full
Language                                 : English
Default                                  : No
Forced                                   : No
Menu
00:00:00.000                             : en:Chapter 27

Эпизод 3

--Звездные войны: Эпизод 3 - Месть ситховStar Wars: Episode III - Revenge of the Sith-- Год выпуска: 2005
Страна: США
Жанр: фантастика, боевик, фэнтези, приключения
Продолжительность: 02:20:05
Перевод: Профессиональный (дублированый)
Субтитры: Russian, English--Режиссер: Джордж Лукас / George Lucas--В ролях: Юэн МакГрегор (Obi-Wan Kenobi), Натали Портман (Padmé), Хейден Кристенсен (Anakin Skywalker), Иэн МакДайармид (Supreme Chancellor Palpatine), Сэмюэл Л. Джексон (Mace Windu), Джимми Смитс (Senator Bail Organa), Фрэнк Оз (Yoda, озвучка), Энтони Дэниелс (C-3PO), Кристофер Ли (Count Dooku), Киша Касл-Хьюз (Queen of Naboo), Сайлас Карсон (Ki-Adi-Mundi / Nute Gunray), Джей Лагаая (Captain Typho)--Описание: После трёх долгих лет жестоких сражений, Война Клонов близка к завершению. Совет джедаев даёт Оби-Вану Кеноби задание доставить Генерала Гривоса, сурового командующего сепаратистской армии дроидов, в руки правосудия. Тем временем на Корусканте усиливается власть Канцлера Палпатина. Его стремительные политические реформы преобразуют ослабленную войной Республику в могущественную Галактическую Империю. Палпатин открывает Анакину Скайуокеру, своему ближайшему соратнику, истинную сущность могущества и секреты Великой Силы в надежде привлечь его на тёмную сторону...--Качество видео: BDRip 1080p [60 fps]
Формат видео: MKV
Видео кодек: AVC (High@L4.1)
Аудио кодек: AC-3
Видео: AVC, 1920x816 (2.35:1), 59.940 fps, 13.9 Mbps (0.148 bit/pixel)
Аудио 1: AC-3, 48.0 KHz, 6 ch, 640 Kbps, CBR, 16 bits [Русский]
Аудио 2: AC-3, 48.0 KHz, 6 ch, 640 Kbps, CBR, 16 bits [Английский] -- --

Кадры из фильма

Тех. данные (MI)

Код:
General
Unique ID                                : 202570364282839514784601109877450089523 (0x9865A20F06992603BC57619282E42433)
Format                                   : Matroska
Format version                           : Version 4 / Version 2
Overall bit rate                         : 15.5 Mbps
Encoded date                             : UTC 2014-06-28 05:33:06
Writing application                      : mkvmerge v7.0.0 ('Where We Going') 64bit built on Jun  9 2014 15:16:27
Writing library                          : libebml v1.3.0 + libmatroska v1.4.1
_STATISTICS_WRITING_APP                  : mkvmerge v7.0.0 ('Where We Going') 64bit built on Jun  9 2014 15:16:27
_STATISTICS_WRITING_DATE_UTC             : 2014-06-28 05:33:06
_STATISTICS_TAGS                         : BPS DURATION NUMBER_OF_FRAMES NUMBER_OF_BYTES
DURATION                                 : 00:00:56.180000000
NUMBER_OF_FRAMES                         : 9
NUMBER_OF_BYTES                          : 145
Video
ID                                       : 1
Format                                   : AVC
Format/Info                              : Advanced Video Codec
Format profile                           : High@L4.1
Format settings, CABAC                   : Yes
Format settings, ReFrames                : 4 frames
Codec ID                                 : V_MPEG4/ISO/AVC
Duration                                 : 58s 567ms
Bit rate                                 : 13.9 Mbps
Width                                    : 1 920 pixels
Height                                   : 816 pixels
Display aspect ratio                     : 2.35:1
Frame rate mode                          : Constant
Frame rate                               : 60.000 fps
Original frame rate                      : 59.940 fps
Color space                              : YUV
Chroma subsampling                       : 4:2:0
Bit depth                                : 8 bits
Scan type                                : Progressive
Bits/(Pixel*Frame)                       : 0.148
Stream size                              : 97.0 MiB (90%)
Language                                 : English
Default                                  : Yes
Forced                                   : No
_STATISTICS_WRITING_APP                  : mkvmerge v7.0.0 ('Where We Going') 64bit built on Jun  9 2014 15:16:27
_STATISTICS_WRITING_DATE_UTC             : 2014-06-28 05:33:06
_STATISTICS_TAGS                         : BPS DURATION NUMBER_OF_FRAMES NUMBER_OF_BYTES
DURATION                                 : 00:00:58.559000000
NUMBER_OF_FRAMES                         : 3510
NUMBER_OF_BYTES                          : 103945603
Audio #1
ID                                       : 2
Format                                   : AC-3
Format/Info                              : Audio Coding 3
Mode extension                           : CM (complete main)
Format settings, Endianness              : Big
Codec ID                                 : A_AC3
Duration                                 : 58s 560ms
Bit rate mode                            : Constant
Bit rate                                 : 640 Kbps
Channel(s)                               : 6 channels
Channel positions                        : Front: L C R, Side: L R, LFE
Sampling rate                            : 48.0 KHz
Bit depth                                : 16 bits
Compression mode                         : Lossy
Stream size                              : 4.47 MiB (4%)
Title                                    : Dub
Language                                 : Russian
Default                                  : Yes
Forced                                   : No
Audio #2
ID                                       : 3
Format                                   : AC-3
Format/Info                              : Audio Coding 3
Mode extension                           : CM (complete main)
Format settings, Endianness              : Big
Codec ID                                 : A_AC3
Duration                                 : 58s 560ms
Bit rate mode                            : Constant
Bit rate                                 : 640 Kbps
Channel(s)                               : 6 channels
Channel positions                        : Front: L C R, Side: L R, LFE
Sampling rate                            : 48.0 KHz
Bit depth                                : 16 bits
Compression mode                         : Lossy
Stream size                              : 4.47 MiB (4%)
Language                                 : English
Default                                  : No
Forced                                   : No
Text #1
ID                                       : 4
Format                                   : UTF-8
Codec ID                                 : S_TEXT/UTF8
Codec ID/Info                            : UTF-8 Plain Text
Title                                    : Forced
Language                                 : Russian
Default                                  : Yes
Forced                                   : No
Text #2
ID                                       : 5
Format                                   : UTF-8
Codec ID                                 : S_TEXT/UTF8
Codec ID/Info                            : UTF-8 Plain Text
Title                                    : Full
Language                                 : Russian
Default                                  : No
Forced                                   : No
Text #3
ID                                       : 6
Format                                   : UTF-8
Codec ID                                 : S_TEXT/UTF8
Codec ID/Info                            : UTF-8 Plain Text
Title                                    : Full
Language                                 : English
Default                                  : No
Forced                                   : No
Menu #1
00:00:00.000                             : en:Confronting Grievous
Menu #2
00:00:00.000                             : en:00:00:00.097

Эпизод 4

--Звездные войны: Эпизод 4 - Новая надеждаStar Wars: Episode IV - A New Hope-- Год выпуска: 1977
Страна: США
Жанр: фантастика, боевик, фэнтези, приключения
Продолжительность: 02:04:44
Перевод: Профессиональный (дублированый)
Субтитры: Russian, English--Режиссер:Джордж Лукас / George Lucas--В ролях: Марк Хэмилл (Luke Skywalker,), Харрисон Форд (Han Solo,), Кэрри Фишер (Princess Leia Organa), Питер Кашинг (Grand Moff Tarkin), Алек Гиннесс (Ben Obi-Wan Kenobi,), Энтони Дэниелс (C-3PO), Кенни Бейкер (R2-D2), Питер Мейхью (Chewbacca), Дэвид Праус (Darth Vader), Джеймс Эрл Джонс (Darth Vader, озвучка,), Фил Браун (Uncle Owen), Шила Фрейзер (Aunt Beru)--Описание: Татуин. Планета-пустыня. Уже постаревший рыцарь Джедай Оби Ван Кеноби спасает молодого Люка Скайуокера, когда тот пытается отыскать пропавшего дроида. С этого момента Люк осознает свое истинное назначение: он один из рыцарей Джедай. В то время как гражданская война охватила галактику, а войска повстанцев ведут бои против сил злого Императора, к Люку и Оби Вану присоединяется отчаянный пилот-наемник Хан Соло, и в сопровождении двух дроидов, R2D2 и C-3PO, этот необычный отряд отправляется на поиски предводителя повстанцев — принцессы Леи. Героям предстоит отчаянная схватка с устрашающим Дартом Вейдером — правой рукой Императора и его секретным оружием — «Звездой Смерти»--Качество видео: BDRip 1080p [60 fps]
Формат видео: MKV
Видео кодек: AVC (High@L4.1)
Аудио кодек: AC-3
Видео: AVC, 1920x816 (2.35:1), 59.940 fps, 11.1 Mbps (0.118 bit/pixel)
Аудио 1: AC-3, 48.0 KHz, 6 ch, 640 Kbps, CBR, 16 bits [Русский]
Аудио 2: AC-3, 48.0 KHz, 6 ch, 640 Kbps, CBR, 16 bits [Английский] -- --

Кадры из фильма

Тех. данные (MI)

Код:
General
Unique ID                                : 221735885809412913676995344037306401198 (0xA6D0C73997F25EE39FD599735DA381AE)
Format                                   : Matroska
Format version                           : Version 4 / Version 2
Overall bit rate                         : 12.7 Mbps
Encoded date                             : UTC 2014-06-28 05:42:02
Writing application                      : mkvmerge v7.0.0 ('Where We Going') 64bit built on Jun  9 2014 15:16:27
Writing library                          : libebml v1.3.0 + libmatroska v1.4.1
_STATISTICS_WRITING_APP                  : mkvmerge v7.0.0 ('Where We Going') 64bit built on Jun  9 2014 15:16:27
_STATISTICS_WRITING_DATE_UTC             : 2014-06-28 05:42:02
_STATISTICS_TAGS                         : BPS DURATION NUMBER_OF_FRAMES NUMBER_OF_BYTES
DURATION                                 : 00:00:51.967000000
NUMBER_OF_FRAMES                         : 8
NUMBER_OF_BYTES                          : 326
Video
ID                                       : 1
Format                                   : AVC
Format/Info                              : Advanced Video Codec
Format profile                           : High@L4.1
Format settings, CABAC                   : Yes
Format settings, ReFrames                : 4 frames
Codec ID                                 : V_MPEG4/ISO/AVC
Duration                                 : 58s 617ms
Bit rate                                 : 11.1 Mbps
Width                                    : 1 920 pixels
Height                                   : 816 pixels
Display aspect ratio                     : 2.35:1
Frame rate mode                          : Constant
Frame rate                               : 60.000 fps
Original frame rate                      : 59.940 fps
Color space                              : YUV
Chroma subsampling                       : 4:2:0
Bit depth                                : 8 bits
Scan type                                : Progressive
Bits/(Pixel*Frame)                       : 0.118
Stream size                              : 77.7 MiB (88%)
Language                                 : English
Default                                  : Yes
Forced                                   : No
_STATISTICS_WRITING_APP                  : mkvmerge v7.0.0 ('Where We Going') 64bit built on Jun  9 2014 15:16:27
_STATISTICS_WRITING_DATE_UTC             : 2014-06-28 05:42:02
_STATISTICS_TAGS                         : BPS DURATION NUMBER_OF_FRAMES NUMBER_OF_BYTES
DURATION                                 : 00:00:58.592000000
NUMBER_OF_FRAMES                         : 3512
NUMBER_OF_BYTES                          : 83291521
Audio #1
ID                                       : 2
Format                                   : AC-3
Format/Info                              : Audio Coding 3
Mode extension                           : CM (complete main)
Format settings, Endianness              : Big
Codec ID                                 : A_AC3
Duration                                 : 58s 622ms
Bit rate mode                            : Constant
Bit rate                                 : 640 Kbps
Channel(s)                               : 6 channels
Channel positions                        : Front: L C R, Side: L R, LFE
Sampling rate                            : 48.0 KHz
Bit depth                                : 16 bits
Compression mode                         : Lossy
Delay relative to video                  : 30ms
Stream size                              : 4.47 MiB (5%)
Title                                    : Dub
Language                                 : Russian
Default                                  : Yes
Forced                                   : No
Audio #2
ID                                       : 3
Format                                   : AC-3
Format/Info                              : Audio Coding 3
Mode extension                           : CM (complete main)
Format settings, Endianness              : Big
Codec ID                                 : A_AC3
Duration                                 : 58s 622ms
Bit rate mode                            : Constant
Bit rate                                 : 640 Kbps
Channel(s)                               : 6 channels
Channel positions                        : Front: L C R, Side: L R, LFE
Sampling rate                            : 48.0 KHz
Bit depth                                : 16 bits
Compression mode                         : Lossy
Delay relative to video                  : 30ms
Stream size                              : 4.47 MiB (5%)
Title                                    : Original
Language                                 : English
Default                                  : No
Forced                                   : No
Text #1
ID                                       : 4
Format                                   : UTF-8
Codec ID                                 : S_TEXT/UTF8
Codec ID/Info                            : UTF-8 Plain Text
Title                                    : Forced
Language                                 : Russian
Default                                  : Yes
Forced                                   : No
Text #2
ID                                       : 5
Format                                   : UTF-8
Codec ID                                 : S_TEXT/UTF8
Codec ID/Info                            : UTF-8 Plain Text
Title                                    : Full
Language                                 : Russian
Default                                  : No
Forced                                   : No
Text #3
ID                                       : 6
Format                                   : UTF-8
Codec ID                                 : S_TEXT/UTF8
Codec ID/Info                            : UTF-8 Plain Text
Title                                    : Full
Language                                 : English
Default                                  : No
Forced                                   : No
Menu
00:00:00.000                             : en:Chapter 24

Эпизод 5

--Звездные войны: Эпизод 5 - Империя наносит ответный ударStar Wars: Episode V - The Empire Strikes Back-- Год выпуска: 1980
Страна: США
Жанр: фантастика, боевик, фэнтези, приключения
Продолжительность: [02:07:21
Перевод: Профессиональный (дублированый)
Субтитры: Russian, English--Режиссер: Джордж Лукас / George Lucas--В ролях: Марк Хэмилл (Luke Skywalker, Echo Base Announcer), Харрисон Форд (Han Solo), Кэрри Фишер (Princess Leia Organa), Билли Ди Уильямс (Lando Calrissian), Энтони Дэниелс (C-3PO), Дэвид Праус (Darth Vader), Питер Мейхью (Chewbacca), Кенни Бейкер (R2-D2), Фрэнк Оз (Yoda, озвучка), Алек Гиннесс (Obi-Wan Kenobi), Джереми Буллок (Boba Fett, Imperial Officer at Cloud City), Джон Холлис (Lando's aide)--Описание: Борьба за Галактику обостряется в пятом эпизоде космической саги. Войска Императора начинают массированную атаку на повстанцев и их союзников. Хан Соло и принцесса Лейя укрываются в Заоблачном Городе, в котором их и захватывает Дарт Вейдер, в то время как Люк Скайуокер находится на таинственной планете джунглей Дагобар. Там Мастер — джедай Йода обучает молодого рыцаря навыкам обретения Силы. Люк даже не предполагает, как скоро ему придется воспользоваться знаниями старого Мастера: впереди битва с превосходящими силами Императора и смертельный поединок с Дартом Вейдером.--Качество видео: BDRip 1080p [60 fps]
Формат видео: MKV
Видео кодек: AVC (High@L4.1)
Аудио кодек: AC-3
Видео: AVC, 1920x816 (2.35:1), 59.940 fps, 12.4 Mbps (0.132 bit/pixel)
Аудио 1: AC-3, 48.0 KHz, 6 ch, 640 Kbps, CBR, 16 bits [Русский]
Аудио 2: AC-3, 48.0 KHz, 6 ch, 640 Kbps, CBR, 16 bits [Английский] -- --

Кадры из фильма

Тех. данные (MI)

Код:
General
Unique ID                                : 238031851157894298002404564915776544673 (0xB313445936AE1D80A39C175D787A5FA1)
Format                                   : Matroska
Format version                           : Version 4 / Version 2
Overall bit rate                         : 13.9 Mbps
Encoded date                             : UTC 2014-06-28 05:50:07
Writing application                      : mkvmerge v7.0.0 ('Where We Going') 64bit built on Jun  9 2014 15:16:27
Writing library                          : libebml v1.3.0 + libmatroska v1.4.1
_STATISTICS_WRITING_APP                  : mkvmerge v7.0.0 ('Where We Going') 64bit built on Jun  9 2014 15:16:27
_STATISTICS_WRITING_DATE_UTC             : 2014-06-28 05:50:07
_STATISTICS_TAGS                         : BPS DURATION NUMBER_OF_FRAMES NUMBER_OF_BYTES
DURATION                                 : 00:01:01.978000000
NUMBER_OF_FRAMES                         : 11
NUMBER_OF_BYTES                          : 334
Video
ID                                       : 1
Format                                   : AVC
Format/Info                              : Advanced Video Codec
Format profile                           : High@L4.1
Format settings, CABAC                   : Yes
Format settings, ReFrames                : 4 frames
Codec ID                                 : V_MPEG4/ISO/AVC
Duration                                 : 1mn 2s
Bit rate                                 : 12.4 Mbps
Width                                    : 1 920 pixels
Height                                   : 816 pixels
Display aspect ratio                     : 2.35:1
Frame rate mode                          : Constant
Frame rate                               : 60.000 fps
Original frame rate                      : 59.940 fps
Color space                              : YUV
Chroma subsampling                       : 4:2:0
Bit depth                                : 8 bits
Scan type                                : Progressive
Bits/(Pixel*Frame)                       : 0.131
Stream size                              : 91.5 MiB (89%)
Language                                 : English
Default                                  : Yes
Forced                                   : No
_STATISTICS_WRITING_APP                  : mkvmerge v7.0.0 ('Where We Going') 64bit built on Jun  9 2014 15:16:27
_STATISTICS_WRITING_DATE_UTC             : 2014-06-28 05:50:07
_STATISTICS_TAGS                         : BPS DURATION NUMBER_OF_FRAMES NUMBER_OF_BYTES
DURATION                                 : 00:01:02.062000000
NUMBER_OF_FRAMES                         : 3720
NUMBER_OF_BYTES                          : 98012713
Audio #1
ID                                       : 2
Format                                   : AC-3
Format/Info                              : Audio Coding 3
Mode extension                           : CM (complete main)
Format settings, Endianness              : Big
Codec ID                                 : A_AC3
Duration                                 : 1mn 2s
Bit rate mode                            : Constant
Bit rate                                 : 640 Kbps
Channel(s)                               : 6 channels
Channel positions                        : Front: L C R, Side: L R, LFE
Sampling rate                            : 48.0 KHz
Bit depth                                : 16 bits
Compression mode                         : Lossy
Delay relative to video                  : 1ms
Stream size                              : 4.74 MiB (5%)
Title                                    : Dub
Language                                 : Russian
Default                                  : Yes
Forced                                   : No
Audio #2
ID                                       : 3
Format                                   : AC-3
Format/Info                              : Audio Coding 3
Mode extension                           : CM (complete main)
Format settings, Endianness              : Big
Codec ID                                 : A_AC3
Duration                                 : 1mn 2s
Bit rate mode                            : Constant
Bit rate                                 : 640 Kbps
Channel(s)                               : 6 channels
Channel positions                        : Front: L C R, Side: L R, LFE
Sampling rate                            : 48.0 KHz
Bit depth                                : 16 bits
Compression mode                         : Lossy
Delay relative to video                  : 1ms
Stream size                              : 4.74 MiB (5%)
Title                                    : Original
Language                                 : English
Default                                  : No
Forced                                   : No
Text #1
ID                                       : 4
Format                                   : UTF-8
Codec ID                                 : S_TEXT/UTF8
Codec ID/Info                            : UTF-8 Plain Text
Title                                    : Forced
Language                                 : Russian
Default                                  : Yes
Forced                                   : No
Text #2
ID                                       : 5
Format                                   : UTF-8
Codec ID                                 : S_TEXT/UTF8
Codec ID/Info                            : UTF-8 Plain Text
Title                                    : Full
Language                                 : Russian
Default                                  : No
Forced                                   : No
Text #3
ID                                       : 6
Format                                   : UTF-8
Codec ID                                 : S_TEXT/UTF8
Codec ID/Info                            : UTF-8 Plain Text
Title                                    : Full
Language                                 : English
Default                                  : No
Forced                                   : No
Menu
00:00:00.000                             : en:Chapter 06

Эпизод 6

--Звездные войны: Эпизод 6 - Возвращение ДжедаяStar Wars: Episode VI - Return of the Jedi-- Год выпуска: 1983
Страна: США
Жанр: фантастика, боевик, фэнтези, приключения
Продолжительность: [02:14:47
Перевод: Профессиональный (дублированый)
Субтитры: Russian, English--Режиссер: Джордж Лукас / George Lucas--В ролях: Марк Хэмилл (Luke Skywalker), Харрисон Форд (Han Solo,), Кэрри Фишер (Princess Leia), Билли Ди Уильямс (Lando Calrissian), Энтони Дэниелс (C-3PO), Питер Мейхью (Chewbacca), Себастьян Шоу (Anakin Skywalker), Иэн МакДайармид (The Emperor), Фрэнк Оз (Yoda, озвучка), Джеймс Эрл Джонс (Voice of Darth Vader, озвучка), Дэвид Праус (Darth Vader), Алек Гиннесс (Ben 'Obi-Wan' Kenobi)--Описание: В заключительном шестом эпизоде «Звездных войн» Дарт Вейдер создает вторую «Звезду Смерти». Он объединяет все силы зла, чтобы с помощью этого смертоносного оружия нанести последний сокрушительный удар по повстанцам и их союзникам.
Люк Скайуокер вместе с принцессой Лейей и верными дроидами R2D2 и C-3PO отправляется спасать своего друга Хана Соло, который пропал в плен к отвратительному Джаббе Хатту — могущественному повелителю преступников.
Повстанцы высаживаются на планету Эндор, чтобы оттуда вместе с Люком и его отрядом предпринять последнюю атаку на Имперский флот, атаку, от которой зависит судьба Галактики. В этом эпизоде Люк Скайуокер и Дарт Вейдер встречаются в последний раз… ибо из поединка между отцом и сыном живым выйдет только один…--Качество видео: BDRip 1080p [60 fps]
Формат видео: MKV
Видео кодек: AVC (High@L4.1)
Аудио кодек: AC-3
Видео: AVC, 1920x816 (2.35:1), 59.940 fps, 13.1 Mbps (0.140 bit/pixel)
Аудио 1: AC-3, 48.0 KHz, 6 ch, 640 Kbps, CBR, 16 bits [Русский]
Аудио 2: AC-3, 48.0 KHz, 6 ch, 640 Kbps, CBR, 16 bits [Английский] -- --

Кадры из фильма

Тех. данные (MI)

Код:
General
Unique ID                                : 189936754997721995635280061447426049349 (0x8EE47D07B746055C9DC72FDE07088545)
Format                                   : Matroska
Format version                           : Version 4 / Version 2
Overall bit rate                         : 14.7 Mbps
Encoded date                             : UTC 2014-06-28 05:59:00
Writing application                      : mkvmerge v7.0.0 ('Where We Going') 64bit built on Jun  9 2014 15:16:27
Writing library                          : libebml v1.3.0 + libmatroska v1.4.1
_STATISTICS_WRITING_APP                  : mkvmerge v7.0.0 ('Where We Going') 64bit built on Jun  9 2014 15:16:27
_STATISTICS_WRITING_DATE_UTC             : 2014-06-28 05:59:00
_STATISTICS_TAGS                         : BPS DURATION NUMBER_OF_FRAMES NUMBER_OF_BYTES
DURATION                                 : 00:00:04.962000000
NUMBER_OF_FRAMES                         : 2
NUMBER_OF_BYTES                          : 53
Video
ID                                       : 1
Format                                   : AVC
Format/Info                              : Advanced Video Codec
Format profile                           : High@L4.1
Format settings, CABAC                   : Yes
Format settings, ReFrames                : 4 frames
Codec ID                                 : V_MPEG4/ISO/AVC
Duration                                 : 1mn 7s
Bit rate                                 : 13.1 Mbps
Width                                    : 1 920 pixels
Height                                   : 816 pixels
Display aspect ratio                     : 2.35:1
Frame rate mode                          : Constant
Frame rate                               : 59.880 fps
Original frame rate                      : 59.940 fps
Color space                              : YUV
Chroma subsampling                       : 4:2:0
Bit depth                                : 8 bits
Scan type                                : Progressive
Bits/(Pixel*Frame)                       : 0.140
Stream size                              : 106 MiB (89%)
Language                                 : English
Default                                  : Yes
Forced                                   : No
_STATISTICS_WRITING_APP                  : mkvmerge v7.0.0 ('Where We Going') 64bit built on Jun  9 2014 15:16:27
_STATISTICS_WRITING_DATE_UTC             : 2014-06-28 05:59:00
_STATISTICS_TAGS                         : BPS DURATION NUMBER_OF_FRAMES NUMBER_OF_BYTES
DURATION                                 : 00:01:07.702000000
NUMBER_OF_FRAMES                         : 4058
NUMBER_OF_BYTES                          : 113700648
Audio #1
ID                                       : 2
Format                                   : AC-3
Format/Info                              : Audio Coding 3
Mode extension                           : CM (complete main)
Format settings, Endianness              : Big
Codec ID                                 : A_AC3
Duration                                 : 1mn 7s
Bit rate mode                            : Constant
Bit rate                                 : 640 Kbps
Channel(s)                               : 6 channels
Channel positions                        : Front: L C R, Side: L R, LFE
Sampling rate                            : 48.0 KHz
Bit depth                                : 16 bits
Compression mode                         : Lossy
Delay relative to video                  : 23ms
Stream size                              : 5.17 MiB (4%)
Title                                    : Dub
Language                                 : Russian
Default                                  : Yes
Forced                                   : No
Audio #2
ID                                       : 3
Format                                   : AC-3
Format/Info                              : Audio Coding 3
Mode extension                           : CM (complete main)
Format settings, Endianness              : Big
Codec ID                                 : A_AC3
Duration                                 : 1mn 7s
Bit rate mode                            : Constant
Bit rate                                 : 640 Kbps
Channel(s)                               : 6 channels
Channel positions                        : Front: L C R, Side: L R, LFE
Sampling rate                            : 48.0 KHz
Bit depth                                : 16 bits
Compression mode                         : Lossy
Delay relative to video                  : 23ms
Stream size                              : 5.17 MiB (4%)
Title                                    : Original
Language                                 : English
Default                                  : No
Forced                                   : No
Text #1
ID                                       : 4
Format                                   : UTF-8
Codec ID                                 : S_TEXT/UTF8
Codec ID/Info                            : UTF-8 Plain Text
Title                                    : Forced
Language                                 : Russian
Default                                  : Yes
Forced                                   : No
Text #2
ID                                       : 5
Format                                   : UTF-8
Codec ID                                 : S_TEXT/UTF8
Codec ID/Info                            : UTF-8 Plain Text
Title                                    : Full
Language                                 : Russian
Default                                  : No
Forced                                   : No
Text #3
ID                                       : 6
Format                                   : UTF-8
Codec ID                                 : S_TEXT/UTF8
Codec ID/Info                            : UTF-8 Plain Text
Title                                    : Full
Language                                 : English
Default                                  : No
Forced                                   : No
Menu
00:00:00.000                             : en:Chapter 37

_________________
[Торрент-статистика]
[Профиль]  [ЛС] 
Показать сообщения:    
Ответить на тему

Текущее время: Сегодня 11:50

Часовой пояс: GMT + 4



Вы не можете начинать темы
Вы не можете отвечать на сообщения
Вы не можете редактировать свои сообщения
Вы не можете удалять свои сообщения
Вы не можете голосовать в опросах
Вы не можете прикреплять файлы к сообщениям
Вы не можете скачивать файлы