Девушка моих кошмаров / The Heartbreak Kid (Бобби Фаррелли, Питер Фаррелли)[2007 г., Комедия, мелодрама, BDRip 720p]DUB + Sub

Ответить на тему
 
Автор
Сообщение

awk05 ®

Пол:

Стаж: 8 лет 10 месяцев

Сообщений: 1334

Репутация: 278 [+] [-]

Откуда: Западная Украина Ривне

Пост 14-Авг-2014 18:19

[Цитировать] 

--Девушка моих кошмаров / The Heartbreak Kid «Всю жизнь он ждал свою Единственную. Жаль, что не подождал еще неделю...»-- Год выпуска: 2007
Жанр: Комедия, мелодрама
Выпущено: США, DreamWorks Pictures
Продолжительность: 01:55:33
Перевод: Дублированный + Original
Субтитры: Русские, украинские, английские--Режиссер: Бобби Фаррелли, Питер Фаррелли--В ролях: Бен Стиллер (Eddie), Малин Акерман (Lila), Мишель Монахэн (Miranda), Джерри Стиллер (Doc), Роб Кордри (Mac), Карлос Менсиа (Tito), Скотт Уилсон (Boo), Полли Холлидей (Beryl), Дэнни МакБрайд (Martin), Рой Дженкинс (Buzz), Стефани Кортни (Gayla), Эми Слоун (Deborah), Лорен Боулз (Tammy), и др.--О фильме: История о парне, терпевшем неудачу за неудачей на любовном фронте и в результате женившемся на идеальной, вроде бы, девушке, которая только во время медового месяца открыла свое истинное лицо — психопатки, экстремалки и капризной стервы. Он в шоке, но тут на горизонте появляется настоящая Девушка Его Мечты — умница-красавица, веселушка и вообще — само совершенство.--Качество видео: BDRip 720p
Формат видео: MKV
Видео кодек: AVC (High@L4.1)
Аудио кодек: AC-3
Видео: AVC, 1280x534 (2.35:1), 23.976 fps, 7 932 Kbps (0.484 bit/pixel)
Аудио 1: AC-3, 48.0 KHz, 6 ch, 640 Kbps, CBR, 16 bits [Русский]
Аудио 2: AC-3, 48.0 KHz, 6 ch, 448 Kbps, CBR, 16 bits [Украинский]
Аудио 3: AC-3, 48.0 KHz, 6 ch, 640 Kbps, CBR, 16 bits [Английский]
Аудио 4: AC-3, 48.0 KHz, 2 ch, 224 Kbps, CBR, 16 bits [Английский] -- --

Знаете ли Вы, что...

В фильме есть момент, где в Бена Стиллера булка. Эту булку кидал в Бена один из режиссеров фильма — Питер Фарелли.

Кадры из фильма

Тех. данные (MI)

Код:
General
Unique ID                                : 222393418198885044368885719436786335852 (0xA74F6A13210B6239A27E00B4F88F006C)
Complete name                            : E:\тест\Devushka.moih.koshmarov.2007.264x.BDRip.(720p).mkv
Format                                   : Matroska
Format version                           : Version 2
File size                                : 8.14 GiB
Duration                                 : 1h 55mn
Overall bit rate                         : 10.1 Mbps
Movie name                               : The Heartbreak Kid (2007) - Release for HDCLUB by Skazhutin
Encoded date                             : UTC 2012-03-27 13:17:27
Writing application                      : mkvmerge v5.4.0 ('Piper') built on Mar 10 2012 13:34:39
Writing library                          : libebml v1.2.3 + libmatroska v1.3.0
Cover                                    : Yes
Attachment                               : Yes
Video
ID                                       : 1
Format                                   : AVC
Format/Info                              : Advanced Video Codec
Format profile                           : High@L4.1
Format settings, CABAC                   : Yes
Format settings, ReFrames                : 11 frames
Codec ID                                 : V_MPEG4/ISO/AVC
Duration                                 : 1h 55mn
Bit rate                                 : 7 932 Kbps
Width                                    : 1 280 pixels
Height                                   : 534 pixels
Display aspect ratio                     : 2.40:1
Frame rate mode                          : Constant
Frame rate                               : 23.976 fps
Color space                              : YUV
Chroma subsampling                       : 4:2:0
Bit depth                                : 8 bits
Scan type                                : Progressive
Bits/(Pixel*Frame)                       : 0.484
Stream size                              : 6.40 GiB (79%)
Title                                    : Release for HDCLUB
Writing library                          : x264 core 122 r2184kMod 5c85e0a
Encoding settings                        : cabac=1 / ref=11 / deblock=1:-3:-3 / analyse=0x3:0x113 / me=umh / subme=11 / psy=1 / fade_compensate=0.00 / psy_rd=0.90:0.00 / mixed_ref=1 / me_range=48 / chroma_me=1 / trellis=2 / 8x8dct=1 / cqm=0 / deadzone=21,11 / fast_pskip=1 / chroma_qp_offset=-2 / threads=12 / sliced_threads=0 / nr=0 / decimate=1 / interlaced=0 / bluray_compat=0 / constrained_intra=0 / bframes=11 / b_pyramid=2 / b_adapt=2 / b_bias=0 / direct=1 / weightb=1 / open_gop=0 / weightp=2 / keyint=250 / keyint_min=23 / scenecut=40 / intra_refresh=0 / rc_lookahead=40 / rc=crf / mbtree=0 / crf=16.0000 / qcomp=0.60 / qpmin=0 / qpmax=69 / qpstep=4 / vbv_maxrate=50000 / vbv_bufsize=62500 / crf_max=0.0 / nal_hrd=none / ip_ratio=1.40 / pb_ratio=1.30 / aq=2:0.80
Language                                 : English
Default                                  : Yes
Forced                                   : No
Matrix coefficients                      : BT.709
Audio #1
ID                                       : 2
Format                                   : AC-3
Format/Info                              : Audio Coding 3
Mode extension                           : CM (complete main)
Format settings, Endianness              : Big
Codec ID                                 : A_AC3
Duration                                 : 1h 55mn
Bit rate mode                            : Constant
Bit rate                                 : 640 Kbps
Channel(s)                               : 6 channels
Channel positions                        : Front: L C R, Side: L R, LFE
Sampling rate                            : 48.0 KHz
Bit depth                                : 16 bits
Compression mode                         : Lossy
Stream size                              : 529 MiB (6%)
Title                                    : AC3 5.1 @ 640 kbps - Дублированный
Language                                 : Russian
Default                                  : Yes
Forced                                   : No
Audio #2
ID                                       : 3
Format                                   : AC-3
Format/Info                              : Audio Coding 3
Mode extension                           : CM (complete main)
Format settings, Endianness              : Big
Codec ID                                 : A_AC3
Duration                                 : 1h 55mn
Bit rate mode                            : Constant
Bit rate                                 : 448 Kbps
Channel(s)                               : 6 channels
Channel positions                        : Front: L C R, Side: L R, LFE
Sampling rate                            : 48.0 KHz
Bit depth                                : 16 bits
Compression mode                         : Lossy
Stream size                              : 370 MiB (4%)
Title                                    : AC3 5.1 @ 448 kbps - Дублированный
Language                                 : Ukrainian
Default                                  : No
Forced                                   : No
Audio #3
ID                                       : 4
Format                                   : AC-3
Format/Info                              : Audio Coding 3
Mode extension                           : CM (complete main)
Format settings, Endianness              : Big
Codec ID                                 : A_AC3
Duration                                 : 1h 55mn
Bit rate mode                            : Constant
Bit rate                                 : 640 Kbps
Channel(s)                               : 6 channels
Channel positions                        : Front: L C R, Side: L R, LFE
Sampling rate                            : 48.0 KHz
Bit depth                                : 16 bits
Compression mode                         : Lossy
Stream size                              : 529 MiB (6%)
Title                                    : AC3 5.1 @ 640 kbps
Language                                 : English
Default                                  : No
Forced                                   : No
Audio #4
ID                                       : 5
Format                                   : AC-3
Format/Info                              : Audio Coding 3
Format profile                           : Dolby Digital
Mode extension                           : CM (complete main)
Format settings, Endianness              : Big
Codec ID                                 : A_AC3
Duration                                 : 1h 55mn
Bit rate mode                            : Constant
Bit rate                                 : 224 Kbps
Channel(s)                               : 2 channels
Channel positions                        : Front: L R
Sampling rate                            : 48.0 KHz
Bit depth                                : 16 bits
Compression mode                         : Lossy
Stream size                              : 185 MiB (2%)
Title                                    : AC3 2.0 @ 224 kbps - Commentary by the Farelly Brothers
Language                                 : English
Default                                  : No
Forced                                   : No
Text #1
ID                                       : 6
Format                                   : UTF-8
Codec ID                                 : S_TEXT/UTF8
Codec ID/Info                            : UTF-8 Plain Text
Title                                    : forced
Language                                 : Russian
Default                                  : Yes
Forced                                   : No
Text #2
ID                                       : 7
Format                                   : UTF-8
Codec ID                                 : S_TEXT/UTF8
Codec ID/Info                            : UTF-8 Plain Text
Language                                 : Russian
Default                                  : No
Forced                                   : No
Text #3
ID                                       : 8
Format                                   : UTF-8
Codec ID                                 : S_TEXT/UTF8
Codec ID/Info                            : UTF-8 Plain Text
Language                                 : Ukrainian
Default                                  : No
Forced                                   : No
Text #4
ID                                       : 9
Format                                   : UTF-8
Codec ID                                 : S_TEXT/UTF8
Codec ID/Info                            : UTF-8 Plain Text
Language                                 : English
Default                                  : No
Forced                                   : No
Text #5
ID                                       : 10
Format                                   : UTF-8
Codec ID                                 : S_TEXT/UTF8
Codec ID/Info                            : UTF-8 Plain Text
Title                                    : Commentary by the Farelly Brothers
Language                                 : English
Default                                  : No
Forced                                   : No
Menu
00:00:00.000                             : en:Chapter 1
00:07:47.800                             : en:Chapter 2
00:13:02.782                             : en:Chapter 3
00:18:32.361                             : en:Chapter 4
00:22:54.790                             : en:Chapter 5
00:30:54.310                             : en:Chapter 6
00:38:58.294                             : en:Chapter 7
00:44:59.822                             : en:Chapter 8
00:57:35.535                             : en:Chapter 9
01:03:55.873                             : en:Chapter 10
01:12:26.175                             : en:Chapter 11
01:18:56.064                             : en:Chapter 12
01:28:30.305                             : en:Chapter 13
01:33:53.544                             : en:Chapter 14
01:41:44.723                             : en:Chapter 15
01:48:04.436                             : en:Chapter 16

_________________
[Торрент-статистика]
[Профиль]  [ЛС] 
Показать сообщения:    
Ответить на тему

Текущее время: Сегодня 03:48

Часовой пояс: GMT + 4



Вы не можете начинать темы
Вы не можете отвечать на сообщения
Вы не можете редактировать свои сообщения
Вы не можете удалять свои сообщения
Вы не можете голосовать в опросах
Вы не можете прикреплять файлы к сообщениям
Вы не можете скачивать файлы