Морской бой / Battleship (Питер Берг/ Peter Berg) [2012 г., фантастика, боевик, триллер, приключения, военный, BDRip 720p [60 fps]] DUB + Original + Sub

Ответить на тему
 
Автор
Сообщение

awk05 ®

Пол:

Стаж: 8 лет 10 месяцев

Сообщений: 1334

Репутация: 278 [+] [-]

Откуда: Западная Украина Ривне

Пост 14-Авг-2014 11:06

[Цитировать] 

--Морской бой / Battleship-- Страна: США
Жанр: фантастика, боевик, триллер, приключения, военный
Год выпуска: 2012
Продолжительность: 02:11:14
Перевод: Профессиональный (полное дублирование)
Cубтитры: Russian, English--Режиссер: Питер Берг / Peter Berg--В ролях: Тейлор Китч(Lieutenant Alex Hopper), Александр Скарсгард (Commander Stone Hopper), Рианна (Petty Officer Cora 'Weps' Raikes), Бруклин Декер (Samantha Shane), Таданобу Асано (Captain Yugi Nagata), Лиам Нисон (Admiral Shane), Джон Туи (Chief Petty Officer Walter 'The Beast' Lynch), Грегори Д. Гэдсон(Lieutenant Colonel Mick Canales), Джесси Племонс (Boatswain Mate Seaman Jimmy 'Ordy' Ord), Хамиш Линклэйтер (Cal Zapata), Питер МакНикол (Secretary of Defense), Джерри Феррара (Sampson JOOD Strodell)--Описание: Мы посылаем сигналы в космос и ждем ответа. Но уверены ли мы, что хотим его получить? Что если пришельцы потенциально опасны? В 2009 году на конференции в Вашингтоне астронавт Эдгар Митчелл, побывавший на Луне, сделал сенсационное заявление о существовании внеземной жизни. Теперь мы знаем, контакт не просто возможен, он неизбежен!-Качество видео: BDRip 720p [60 fps]
Формат видео: MKV
Видео кодек: AVC (High@L4.0)
Аудио кодек: AC-3
Видео: AVC, 1280x534 (2.35:1), 59.940 fps, 9 628 Kbps (0.235 bit/pixel)
Аудио 1: AC-3, 48.0 KHz, 6 ch, 448 Kbps, CBR, 16 bits [Русский]
Аудио 2: AC-3, 48.0 KHz, 6 ch, 448 Kbps, CBR, 16 bits [Английский] -- --

Знаете ли Вы, что...

* Швед Александр Скарсгард — единственный из основных создателей фильма, кто служил в армии. Он был призван в 19 и провел 18 месяцев в антитеррористическом подразделении.
* Тереза Палмер и Роузи Хантингтон-Уайтли пробовались на роль Сэм.
* Джереми Реннер должен был сыграть Алекса Хоппера, но покинул проект в пользу фильма «Мастер» (2012), чтобы сыграть одну из главных ролей, но и с последним проектом в итоге не срослось.
* Съёмки проходили на Гавайских островах Мауи и Оаху, в Шерман-Оукс (Лос-Анджелесе), на пляже Плайя Дель Рей и в городе Батон-Руж.
* Дословный перевод названия Battleship — «линкор». Сегодня корабли такого класса признаны непрактичными для ведения современного боя и выведены из составов флотов.
* Линкор «Миссури» также участвовал в съемках фильма «В осаде» (1992).

Кадры из фильма

Тех. данные (MI)

Код:
General
Unique ID                                : 199719084214525259933116579050095266640 (0x96407F19039CB97D853DB598AD824B50)
Complete name                            : E:\тест\Battleship [BDRip-720p 60 FPS] By EXCLUSIF.mkv
Format                                   : Matroska
Format version                           : Version 4 / Version 2
File size                                : 88.5 MiB
Duration                                 : 1mn 9s
Overall bit rate                         : 10.7 Mbps
Movie name                               : Battleship [BDRip-720p 60 FPS] By EXCLUSIF
Encoded date                             : UTC 2014-03-15 17:32:24
Writing application                      : mkvmerge v6.0.0 ('Coming Up For Air') built on Jan 20 2013 09:52:00
Writing library                          : libebml v1.3.0 + libmatroska v1.4.0
Video
ID                                       : 1
Format                                   : AVC
Format/Info                              : Advanced Video Codec
Format profile                           : High@L4.0
Format settings, CABAC                   : Yes
Format settings, ReFrames                : 8 frames
Codec ID                                 : V_MPEG4/ISO/AVC
Duration                                 : 1mn 9s
Bit rate                                 : 9 628 Kbps
Width                                    : 1 280 pixels
Height                                   : 534 pixels
Display aspect ratio                     : 2.40:1
Frame rate mode                          : Constant
Frame rate                               : 59.880 fps
Original frame rate                      : 59.940 fps
Color space                              : YUV
Chroma subsampling                       : 4:2:0
Bit depth                                : 8 bits
Scan type                                : Progressive
Bits/(Pixel*Frame)                       : 0.235
Stream size                              : 79.4 MiB (90%)
Title                                    : Release by EXCLUSIF
Language                                 : English
Default                                  : Yes
Forced                                   : No
Audio #1
ID                                       : 2
Format                                   : AC-3
Format/Info                              : Audio Coding 3
Mode extension                           : CM (complete main)
Format settings, Endianness              : Big
Codec ID                                 : A_AC3
Duration                                 : 1mn 9s
Bit rate mode                            : Constant
Bit rate                                 : 448 Kbps
Channel(s)                               : 6 channels
Channel positions                        : Front: L C R, Side: L R, LFE
Sampling rate                            : 48.0 KHz
Bit depth                                : 16 bits
Compression mode                         : Lossy
Delay relative to video                  : 21ms
Stream size                              : 3.69 MiB (4%)
Title                                    : Rus
Language                                 : Russian
Default                                  : Yes
Forced                                   : No
Audio #2
ID                                       : 3
Format                                   : AC-3
Format/Info                              : Audio Coding 3
Mode extension                           : CM (complete main)
Format settings, Endianness              : Big
Codec ID                                 : A_AC3
Duration                                 : 1mn 9s
Bit rate mode                            : Constant
Bit rate                                 : 448 Kbps
Channel(s)                               : 6 channels
Channel positions                        : Front: L C R, Side: L R, LFE
Sampling rate                            : 48.0 KHz
Bit depth                                : 16 bits
Compression mode                         : Lossy
Delay relative to video                  : 21ms
Stream size                              : 3.69 MiB (4%)
Title                                    : Eng
Language                                 : English
Default                                  : No
Forced                                   : No
Text #1
ID                                       : 4
Format                                   : UTF-8
Codec ID                                 : S_TEXT/UTF8
Codec ID/Info                            : UTF-8 Plain Text
Title                                    : Rus Forced
Language                                 : Russian
Default                                  : Yes
Forced                                   : Yes
Text #2
ID                                       : 5
Format                                   : UTF-8
Codec ID                                 : S_TEXT/UTF8
Codec ID/Info                            : UTF-8 Plain Text
Title                                    : Rus
Language                                 : Russian
Default                                  : No
Forced                                   : No
Text #3
ID                                       : 6
Format                                   : UTF-8
Codec ID                                 : S_TEXT/UTF8
Codec ID/Info                            : UTF-8 Plain Text
Title                                    : Eng
Language                                 : English
Default                                  : No
Forced                                   : No

_________________
[Торрент-статистика]
[Профиль]  [ЛС] 
Показать сообщения:    
Ответить на тему

Текущее время: Сегодня 03:28

Часовой пояс: GMT + 4



Вы не можете начинать темы
Вы не можете отвечать на сообщения
Вы не можете редактировать свои сообщения
Вы не можете удалять свои сообщения
Вы не можете голосовать в опросах
Вы не можете прикреплять файлы к сообщениям
Вы не можете скачивать файлы