Хэнкок / Hancock (Питер Берг / Peter Berg) [2008г., Фантастика, боевик, комедия, BDRip 720p [60 fps]] DUB + Original + Sub

Ответить на тему
 
Автор
Сообщение

awk05 ®

Пол:

Стаж: 8 лет 10 месяцев

Сообщений: 1334

Репутация: 278 [+] [-]

Откуда: Западная Украина Ривне

Пост 14-Авг-2014 10:31

[Цитировать] 

--Хэнкок / Hancock«Он - обычный человек... почти»-- Год выхода: 2008
Жанр: Фантастика, боевик, комедия
Выпущено: США
Продолжительность: 01:42:14
Перевод: Дублированный
Субтитры: Русские, Английские--Режиссер: Питер Берг / Peter Berg--В ролях: Уилл Смит (John Hancock), Шарлиз Терон (Mary), Джейсон Бейтман (Ray), Джей Хед (Aaron), Эдди Марсан (Red), Дэвид Мэтти (Man Mountain), Метрикс Фиттен (Matrix), Томас Леннон (Mike), Джонни Галэки (Jeremy), Хейли Норман (Hottie), Мишель Лемон (Girl at Bus Bench), Акива Голдсман (Executive), и др.--Сюжет фильма:Есть герои, есть супергерои, и есть Хэнкок. Обладание сверхспособностями предполагает ответственность, все знают это — кроме него. За любую задачу он с душой и лучшими намерениями, спасает жизни людей — ценой нечеловеческих разрушений и неисчислимого ущерба. В конце концов, терпение общественности подходит к концу: люди благодарны своему местному герою, но иногда не понимают, чем заслужили такое наказание.
Хэнкок не из тех парней, кого волнует какое-то там общественное мнение, но однажды, после очередного подвига, спасая высокопоставленного пиарщика Рэя, он вдруг понимает, что в некотором смысле он может быть уязвим. С этим трудно смириться, особенно по мнению Мэри, жены Рэя, считающей, что Хэнкок попросту безнадежен.--Качество видео: BDRip 720p [60 fps]
Формат видео: MKV
Видео кодек: AVC (High@L4.1)
Аудио кодек: AC-3
Видео: AVC, 1280x544 (2.35:1), 23.976 fps, 3 327 Kbps (0.199 bit/pixel)
Аудио 1: AC-3, 48.0 KHz, 6 ch, 448 Kbps, CBR, 16 bits [Русский]
Аудио 2: AC-3, 48.0 KHz, 6 ch, 448 Kbps, CBR, 16 bits [Английский] -- --

Знаете ли Вы, что...

* Первоначально фильм получил рейтинг «R» за то, что герой Смита употребляет алкоголь перед несовершеннолетним и летает в состоянии алкогольного опьянения.
* Фильм был показан на военной базе США на Ближнем Востоке за неделю до его премьеры в США — показ был бесплатным для всех американских военнослужащих на этой базе.
* Имя главного героя появилось в результате ошибки. В оригинале герой Уилла Смита объясняет, что когда он очнулся в больнице, медсестра сказала ему поставить «Джона Хэнкока» на одной из бумаг. Джон Хэнкок — американский государственный деятель, получивший большую известность за особо крупную подпись, поставленную под Декларацией независимости США. В последствии его имя стало нарицательным и значило «поставить подпись» или «расписаться». В российском официальном переводе была указана совсем другая причина появления этих инициалов.
* Сценарий фильма на протяжении десяти переходил от одной студии к другой, но никто не решался его воплотить в жизнь. В течение этого времени на главную прочили многих известных актеров, среди которых были Джордж Клуни, Бен Аффлек, Мэтт Дэймон и Леонардо ДиКаприо.
* После того как студия «Warner Bros.» отказалась от проекта, им занялась «Sony».
* В одной из сцен Мэри одета в колледжа «Macalester College». Питер Берг закончил данный колледж.
* Кандидатура Дэйва Шапелла рассматривалась на главную роль.
* В некоторые кинотеатры копии фильма доставляла либо под названием «Hidden from Earth», либо «Speak Publicly».
* Изначально фильм должен был называться «Сегодня вечером он придет». Затем его переименовали в «Джона Хэнкока», а после сократили до «Хэнкок».
* Уилл Смит хотел, чтобы Айшвария Рай сыграла Мэри, но ей пришлось отказаться от роли из-за занятости на других проектах.
* Шарлиз Терон и Джейсон Бейтман сыграли супругов в третьем сезоне «Замедленного развития» (2003).
* Питер Берг, режиссер фильма, сыграл одного из врачей, которые борются за жизнь Мэри.
* Винсент Нго написал сценарий фильма в 1996 году. Почти десять спустя Винс Джиллигэн переписал сценарий, Джонатан Мостоу должен был поставить фильм, а премьера — состояться в 2007 году.
* Когда Джонатан Мостоу покинул проект в мае 2006 года, режиссером назначили Габриэле Муччино, который в то время занимался монтажом «В погоне за счастьем» (2006), где также сыграл Уилл Смит. «Хэнкок» должен был стать их следующим совместным проектом, однако Смит решил сначала сделать «Я — легенда» (2007). В октябре 2006 года Габриэле покинул проект из-за творческих разногласий.
* На пост режиссера также рассматривались Майкл Манн и Тони Скотт.
* В фильме содержится 525 кадров со спецэффектами.
* В сцене, где Рэй впервые объясняет свое видение PR-кампании, членов совета сыграли различные голливудские продюсеры, среди которых Акива Голдсман и Майкл Манн.

Кадры из фильма

Тех. данные (MI)

Код:
Format : Matroska
Format version : Version 2
File size : 7.35 GiB
Duration : 1h 42mn
Overall bit rate : 10.3 Mbps
Movie name : Хэнкок.(2008).BDRip.720p.[envy].[60fps]
Encoded date : UTC 2014-04-01 04:35:39
Writing application : mkvmerge v5.8.0 ('No Sleep / Pillow') built on Sep 2 2012 15:37:04
Writing library : libebml v1.2.3 + libmatroska v1.3.0
Video
ID : 1
Format : AVC
Format/Info : Advanced Video Codec
Format profile : High@L4.1
Format settings, CABAC : Yes
Format settings, ReFrames : 9 frames
Codec ID : V_MPEG4/ISO/AVC
Duration : 1h 42mn
Bit rate : 9 406 Kbps
Width : 1 280 pixels
Height : 534 pixels
Display aspect ratio : 2.40:1
Frame rate mode : Constant
Frame rate : 59.880 fps
Original frame rate : 59.940 fps
Color space : YUV
Chroma subsampling : 4:2:0
Bit depth : 8 bits
Scan type : Progressive
Bits/(Pixel*Frame) : 0.230
Stream size : 6.56 GiB (89%)
Title : Henkok.(2008).BDRip.720p.[envy].[60fps]
Writing library : x264 core 140 r2377 1ca7bb9
Encoding settings : cabac=1 / ref=9 / deblock=1:-2:-2 / analyse=0x3:0x133 / me=umh / subme=11 / psy=1 / psy_rd=1.00:0.00 / mixed_ref=1 / me_range=32 / chroma_me=1 / trellis=2 / 8x8dct=1 / cqm=0 / deadzone=21,11 / fast_pskip=0 / chroma_qp_offset=-2 / threads=12 / lookahead_threads=1 / sliced_threads=0 / nr=0 / decimate=1 / interlaced=0 / bluray_compat=0 / constrained_intra=0 / bframes=5 / b_pyramid=2 / b_adapt=2 / b_bias=0 / direct=3 / weightb=1 / open_gop=0 / weightp=2 / keyint=240 / keyint_min=23 / scenecut=40 / intra_refresh=0 / rc=2pass / mbtree=0 / bitrate=9406 / ratetol=2.0 / qcomp=0.60 / qpmin=0 / qpmax=69 / qpstep=4 / cplxblur=20.0 / qblur=0.5 / ip_ratio=1.40 / pb_ratio=1.30 / aq=2:1.00
Language : English
Default : Yes
Forced : No
Audio #1
ID : 2
Format : AC-3
Format/Info : Audio Coding 3
Mode extension : CM (complete main)
Format settings, Endianness : Big
Codec ID : A_AC3
Duration : 1h 42mn
Bit rate mode : Constant
Bit rate : 448 Kbps
Channel count : 6 channels
Channel positions : Front: L C R, Side: L R, LFE
Sampling rate : 48.0 KHz
Bit depth : 16 bits
Compression mode : Lossy
Stream size : 328 MiB (4%)
Title : Dub
Language : Russian
Default : Yes
Forced : No
Audio #2
ID : 3
Format : AC-3
Format/Info : Audio Coding 3
Mode extension : CM (complete main)
Format settings, Endianness : Big
Codec ID : A_AC3
Duration : 1h 42mn
Bit rate mode : Constant
Bit rate : 448 Kbps
Channel count : 6 channels
Channel positions : Front: L C R, Side: L R, LFE
Sampling rate : 48.0 KHz
Bit depth : 16 bits
Compression mode : Lossy
Stream size : 328 MiB (4%)
Title : Eng
Language : English
Default : No
Forced : No
Text #1
ID : 4
Format : UTF-8
Codec ID : S_TEXT/UTF8
Codec ID/Info : UTF-8 Plain Text
Title : rus full
Language : Russian
Default : No
Forced : No
Text #2
ID : 5
Format : UTF-8
Codec ID : S_TEXT/UTF8
Codec ID/Info : UTF-8 Plain Text
Title : eng full
Language : English
Default : No
Forced : No
Menu
00:00:00.000 : :Chapter 01
00:11:45.871 : :Chapter 02
00:17:26.503 : :Chapter 03
00:23:55.058 : :Chapter 04
00:28:24.953 : :Chapter 05
00:35:40.554 : :Chapter 06
00:42:44.103 : :Chapter 07
00:47:00.525 : :Chapter 08
00:49:54.991 : :Chapter 09
00:54:07.869 : :Chapter 10
01:02:59.942 : :Chapter 11
01:08:20.387 : :Chapter 12
01:15:13.300 : :Chapter 13
01:21:32.429 : :Chapter 14
01:25:35.171 : :Chapter 15
01:31:02.415 : :Chapter 16

_________________
[Торрент-статистика]
[Профиль]  [ЛС] 
Показать сообщения:    
Ответить на тему

Текущее время: Сегодня 01:04

Часовой пояс: GMT + 4



Вы не можете начинать темы
Вы не можете отвечать на сообщения
Вы не можете редактировать свои сообщения
Вы не можете удалять свои сообщения
Вы не можете голосовать в опросах
Вы не можете прикреплять файлы к сообщениям
Вы не можете скачивать файлы