План побега / Escape Plan (Микаэль Хофстрём / Mikael Håfström) [2013 г.,боевик, триллер, детектив, BDRip 720p [60 fps]] DUB + MVO + AVO + Original + Sub

Ответить на тему
 
Автор
Сообщение

awk05 ®

Пол:

Стаж: 8 лет 9 месяцев

Сообщений: 1334

Репутация: 278 [+] [-]

Откуда: Западная Украина Ривне

Пост 14-Авг-2014 09:55

[Цитировать] 

--План побега / Escape Plan
«Из самой надежной тюрьмы в одиночку убежать невозможно»
-- Год выпуска: 2013
Страна: США
Жанр: боевик, триллер, детектив
Продолжительность: 01:50:40
Перевод: Дублированный, Любительский (Многоголосый, закадровый), Авторский (Л.Володарский, А.Гаврилов, В.Горчаков) + Original
Субтитры: Russian, English--Режиссер: Микаэль Хофстрём / Mikael Håfström--В ролях: Сильвестр Сталлоне (Ray Breslin), Арнольд Шварценеггер (Rottmayer), Джеймс Кэвизел (Hobbes), Винни Джонс (Drake), Сэм Нил (Dr. Kyrie), Фаран Таир (Javed), Винсент Д’Онофрио (Lester Clark), Эми Райан (Abigail), Фифти Сент (Hush), Каитриона Бэлфи (Jessica Miller), и др.--Описание: Рэй Бреслин — уникальный человек: благодаря своей наблюдательности, логике и эрудированности он может сбежать из любой тюрьмы. Он работает в независимой охранной кампании, под руководством своего шефа Лестера Кларка и коллегами Хашом и Эбигейл Росс и использует свои способности, чтобы тестировать лучшие тюрьмы США. Выводы неутешительны для тюремщиков — он сбегал из 14 тюрем. И даже написал книгу об этом.
Рэй Бреслин соглашается на последнюю рисковую операцию: сбежать из суперсекретной высокотехнологичной тюрьмы, которую называют «Гробницей». Преданный Рэй Бреслин вынужден прибегнуть к помощи напарника — заключенного Эмиля Ротмайера, чтобы разработать отчаянный и практически неосуществимый план побега из самой защищенной тюрьмы в мире!--Качество видео: BDRip 720p [60 fps]
Формат видео: MKV
Видео кодек: AVC (High@L4.1)
Аудио кодек: AC-3
Видео: AVC, 1280x536 (2.35:1), 59.940 fps, 4 010 Kbps (0.098 bit/pixel)
Аудио 1: AC-3, 48.0 KHz, 6 ch, 640 Kbps, CBR, 16 bits [Русский] Дублированный
Аудио 2: AC-3, 48.0 KHz, 6 ch, 640 Kbps, CBR, 16 bits [Русский] Одноголосый закадровый, Л.Володарский
Аудио 3: AC-3, 48.0 KHz, 6 ch, 640 Kbps, CBR, 16 bits [Русский] Одноголосый закадровый, А.Гаврилов
Аудио 4: AC-3, 48.0 KHz, 6 ch, 640 Kbps, CBR, 16 bits [Русский] Одноголосый закадровый, В.Горчаков
Аудио 5: AC-3, 48.0 KHz, 6 ch, 640 Kbps, CBR, 16 bits [Русский] Многоголосый закадровый, BaibaKo
Аудио 6: AC-3, 48.0 KHz, 6 ch, 640 Kbps, CBR, 16 bits [Английский] -- --

Знаете ли Вы, что...

* Идея о том, чтобы вместе сняться в фильме, обсуждалась между Сильвестром Сталлоне и Арнольдом Шварценеггером на протяжении многих , еще с середины 1980-х. Были написаны различные версии сценария, но, по словам Шварценнегера, их со Сталлоне съемочные графики не совпадали. После того как Шварценнегер занял пост губернатора, а затем исполнил эпизодическую роль в фильме «Неудержимые» (2010), они вернулись к идее о совместной работе.
* Сильвестр Сталлоне повредил сухожилие правой ноги во время съёмок сцены боя.
* Предполагалось, что фильм поставит Антуан Фукуа, а главную роль сыграет Брюс Уиллис.
* Съёмки проходили в Новом Орлеане, Луизиане и Лос-Анджелесе.
* Во время сцены в карцере герой Шварценеггера обращается к Господу и смотрит на Кэвизела, который исполнял главную роль в фильме «Страсти Христовы» (2004).
* В одной из сцен герой Сталлоне определяет местоположение тюрьмы, ссылаясь на закручивание воды при стоке. Обратное закручивание воды при стоке — околонаучный миф, основанный на неверном применении эффекта Кориолиса к движению воды в водовороте, возникающему при её стоке в сливное отверстие раковины или ванны. Суть мифа состоит в том, что вода якобы закручивается в разных направлениях в Южном и Северном полушариях Земли, что якобы объясняется вращением Земли и действием силы Кориолиса.

Кадры из фильма

Тех. данные (MI)

Код:
Format : Matroska
Format version : Version 2
File size : 6.54 GiB
Duration : 1h 55mn
Overall bit rate : 8 101 Kbps
Movie name : План побега.(2013).BDRip.720p.[envy].[60fps]
Encoded date : UTC 2014-07-08 17:16:25
Writing application : mkvmerge v5.8.0 ('No Sleep / Pillow') built on Sep 2 2012 15:37:04
Writing library : libebml v1.2.3 + libmatroska v1.3.0
Video
ID : 1
Format : AVC
Format/Info : Advanced Video Codec
Format profile : High@L4.1
Format settings, CABAC : Yes
Format settings, ReFrames : 9 frames
Codec ID : V_MPEG4/ISO/AVC
Duration : 1h 55mn
Bit rate : 4 100 Kbps
Width : 1 280 pixels
Height : 536 pixels
Display aspect ratio : 2.40:1
Frame rate mode : Constant
Frame rate : 59.880 fps
Original frame rate : 59.940 fps
Color space : YUV
Chroma subsampling : 4:2:0
Bit depth : 8 bits
Scan type : Progressive
Bits/(Pixel*Frame) : 0.100
Stream size : 3.31 GiB (51%)
Title : План побега.(2013).BDRip.720p.[envy].[60fps]
Writing library : x264 core 130 r2273 b3065e6
Encoding settings : cabac=1 / ref=9 / deblock=1:-3:-3 / analyse=0x3:0x133 / me=umh / subme=9 / psy=1 / psy_rd=1.00:0.10 / mixed_ref=1 / me_range=32 / chroma_me=1 / trellis=2 / 8x8dct=1 / cqm=0 / deadzone=21,11 / fast_pskip=0 / chroma_qp_offset=-3 / threads=12 / lookahead_threads=2 / sliced_threads=0 / nr=0 / decimate=1 / interlaced=0 / bluray_compat=0 / constrained_intra=0 / bframes=7 / b_pyramid=2 / b_adapt=2 / b_bias=0 / direct=1 / weightb=1 / open_gop=0 / weightp=2 / keyint=250 / keyint_min=25 / scenecut=40 / intra_refresh=0 / rc=cqp / mbtree=0 / qp=19 / ip_ratio=1.40 / pb_ratio=1.30 / aq=0
Language : English
Default : Yes
Forced : No
Audio #1
ID : 2
Format : AC-3
Format/Info : Audio Coding 3
Mode extension : CM (complete main)
Format settings, Endianness : Big
Codec ID : A_AC3
Duration : 1h 55mn
Bit rate mode : Constant
Bit rate : 640 Kbps
Channel count : 6 channels
Channel positions : Front: L C R, Side: L R, LFE
Sampling rate : 48.0 KHz
Bit depth : 16 bits
Compression mode : Lossy
Stream size : 529 MiB (8%)
Title : Dub
Language : Russian
Default : Yes
Forced : No
Audio #2
ID : 3
Format : AC-3
Format/Info : Audio Coding 3
Mode extension : CM (complete main)
Format settings, Endianness : Big
Codec ID : A_AC3
Duration : 1h 55mn
Bit rate mode : Constant
Bit rate : 640 Kbps
Channel count : 6 channels
Channel positions : Front: L C R, Side: L R, LFE
Sampling rate : 48.0 KHz
Bit depth : 16 bits
Compression mode : Lossy
Stream size : 529 MiB (8%)
Title : Volodarskij
Language : Russian
Default : No
Forced : No
Audio #3
ID : 4
Format : AC-3
Format/Info : Audio Coding 3
Mode extension : CM (complete main)
Format settings, Endianness : Big
Codec ID : A_AC3
Duration : 1h 55mn
Bit rate mode : Constant
Bit rate : 640 Kbps
Channel count : 6 channels
Channel positions : Front: L C R, Side: L R, LFE
Sampling rate : 48.0 KHz
Bit depth : 16 bits
Compression mode : Lossy
Stream size : 529 MiB (8%)
Title : Gavrilov
Language : Russian
Default : No
Forced : No
Audio #4
ID : 5
Format : AC-3
Format/Info : Audio Coding 3
Mode extension : CM (complete main)
Format settings, Endianness : Big
Codec ID : A_AC3
Duration : 1h 55mn
Bit rate mode : Constant
Bit rate : 640 Kbps
Channel count : 6 channels
Channel positions : Front: L C R, Side: L R, LFE
Sampling rate : 48.0 KHz
Bit depth : 16 bits
Compression mode : Lossy
Stream size : 529 MiB (8%)
Title : Gorchakov
Language : Russian
Default : No
Forced : No
Audio #5
ID : 6
Format : AC-3
Format/Info : Audio Coding 3
Mode extension : CM (complete main)
Format settings, Endianness : Big
Codec ID : A_AC3
Duration : 1h 55mn
Bit rate mode : Constant
Bit rate : 640 Kbps
Channel count : 6 channels
Channel positions : Front: L C R, Side: L R, LFE
Sampling rate : 48.0 KHz
Bit depth : 16 bits
Compression mode : Lossy
Stream size : 529 MiB (8%)
Title : BaibaKo
Language : Russian
Default : No
Forced : No
Audio #6
ID : 7
Format : AC-3
Format/Info : Audio Coding 3
Mode extension : CM (complete main)
Format settings, Endianness : Big
Codec ID : A_AC3
Duration : 1h 55mn
Bit rate mode : Constant
Bit rate : 640 Kbps
Channel count : 6 channels
Channel positions : Front: L C R, Side: L R, LFE
Sampling rate : 48.0 KHz
Bit depth : 16 bits
Compression mode : Lossy
Stream size : 529 MiB (8%)
Title : Eng
Language : English
Default : No
Forced : No
Text #1
ID : 8
Format : UTF-8
Codec ID : S_TEXT/UTF8
Codec ID/Info : UTF-8 Plain Text
Title : full
Language : Russian
Default : No
Forced : No
Text #2
ID : 9
Format : UTF-8
Codec ID : S_TEXT/UTF8
Codec ID/Info : UTF-8 Plain Text
Title : full
Language : English
Default : No
Forced : No
Menu
00:00:00.000 : en:00:00:00.000
00:06:33.643 : en:00:06:33.643
00:15:40.940 : en:00:15:40.940
00:19:50.439 : en:00:19:50.439
00:26:22.706 : en:00:26:22.706
00:33:08.111 : en:00:33:08.111
00:39:14.310 : en:00:39:14.310
00:45:41.697 : en:00:45:41.697
00:50:07.171 : en:00:50:07.171
00:58:59.494 : en:00:58:59.494
01:06:44.834 : en:01:06:44.834
01:13:51.135 : en:01:13:51.135
01:21:04.359 : en:01:21:04.359
01:27:58.523 : en:01:27:58.523
01:35:35.188 : en:01:35:35.188
01:42:14.879 : en:01:42:14.879

_________________
[Торрент-статистика]
[Профиль]  [ЛС] 
Показать сообщения:    
Ответить на тему

Текущее время: Сегодня 10:00

Часовой пояс: GMT + 4



Вы не можете начинать темы
Вы не можете отвечать на сообщения
Вы не можете редактировать свои сообщения
Вы не можете удалять свои сообщения
Вы не можете голосовать в опросах
Вы не можете прикреплять файлы к сообщениям
Вы не можете скачивать файлы