Куда приводят мечты / What Dreams May Come (Винсент Уорд / Vincent Ward)[1998 г., фэнтези, драма, мелодрама, BDRip 720p [60fps]] DUB + Sub (Rus, Eng)

Ответить на тему
 
Автор
Сообщение

awk05 ®

Пол:

Стаж: 4 года 5 месяцев

Сообщений: 1352

Репутация: 275 [+] [-]

Откуда: Западная Украина Ривне

Пост 13-Авг-2014 18:50

[Цитировать] 

--Куда приводят мечты / What Dreams May Come«After life there is more. The end is just the beginning»-- Страна: США, Новая Зеландия
Год выпуска: 1998
Жанр: фэнтези, драма, мелодрама
Продолжительность: 01:53:37
Перевод: Профессиональный (Дублированый)
Субтитры: Русские Полные, Английские Полные--Режиссер: Винсент Уорд / Vincent Ward--В ролях: Робин Уильямс (Chris Nielsen), Кьюба Гудинг мл. (Albert Lewis), Аннабелла Шиорра (Annie Collins-Nielsen), Макс фон Сюдов (The Tracker), Джессика Брукс Грант (Marie Nielsen), Джош Пэддок (Ian Nielsen), Розалинд Чао (Leona), Люсинда Дженни (Mrs. Jacobs), Мэгги МакКарти (Stacey Jacobs), Уильма Бонет (Angie)--Описание: После гибели Криса Нилсена в автокатастрофе он, обретя бессмертие, пытается остаться рядом со своей прекрасной, но смертной женой Энни. С помощью дружественного духа, приставленного к нему в качестве проводника, он начинает привыкать к своему новому существованию в окружении, которое иначе как райским не назовешь. Но когда его обезумевшая от горя жена кончает жизнь самоубийством, ее проклинают и навечно изгоняют в ад. Крис изо всех сил пытается отыскать любимую, чтобы всегда быть с ней, но еще никому и никогда не удавалось спасти грешную душу от ужасного, но заслуженного возмездия. Благодаря помощи своих небесных друзей Крис отправляется в самое опасное и мучительное путешествие в своей жизни, точнее, в жизни после смерти.--Качество видео: BDRip 720p [60fps]
Формат видео: MKV
Видео кодек: AVC (High@L4.1)
Аудио кодек: AC-3
Видео: AVC, 1280x544 (2.35:1), 59.940 fps, 4 980 Kbps (0.119 bit/pixel)
Аудио 1: AC-3, 48.0 KHz, 6 ch, 448 Kbps, CBR, 16 бит [Русский]
Аудио 2: AC-3, 48.0 KHz, 6 ch, 448 Kbps, CBR, 16 бит [Английский] -- --Прежде чем скачивать фильм полностью, скачайте "сэмпл", и проверьте будет ли воспроизводится видео на вашем устройстве!--

Знаете ли Вы, что...

* Фильм снят по мотивам романа Ричарда Мэтисона «Куда приводят мечты» (What Dreams May Come, 1978).
* Традиционный перевод названия этого фильма на русский язык игнорирует то обстоятельство, что фраза «What dreams may come» — это цитата из знаменитого монолога Гамлета «Быть или не быть…»; более правильным и соответствующим смыслу фильма переводом его названия было бы использование этой фразы в переводе Бориса Пастернака — «Какие сны в том смертном сне приснятся…» (или следующей за ней фразы «Когда покров земного чувства снят»).
* Изначально музыку к этому фильму писал Эннио Морриконе. Однако после тест-просмотров его композиции были удалены из картины. Ни режиссер, ни продюсеры не дали никаких внятных объяснений по этому поводу. В конечном счете в саундтреке ленты использовались композиции Майкла Кэмена и Альфреда Шнитке.
* На роль Энни Нильсен пробовалась американская актриса Аннет Бенинг.
* Фраза «День 2Р» (день решения о разводе) соответствует английскому варианту «DD-Day» (англ. Divorce Decision — решение о разводе). Кроме того, изначально Крис называет день развода «D-Day» (Divorce Day, русск. День Д) — этим термином в американской армии обозначается день начала какой-либо операции.
* Когда Крис попадает в рай, то можно наблюдать среди летающих людей героев сказок — Питера Пена и * Мэри Поппинс. Кроме того, мать режиссёра Винсента Ворда находится среди летающих людей в библиотеке.

Кадры из фильма

Тех. данные (MI)

Код:
General
Unique ID                                : 202978579661451010836673215852647535801 (0x98B440A179AE9268BE8AB6320A07D4B9)
Complete name                            : E:\тест\Kuda.privodjat.mechty.(1998).BDRip.720p.[envy].[60fps].mkv
Format                                   : Matroska
Format version                           : Version 2
File size                                : 4.66 GiB
Duration                                 : 1h 53mn
Overall bit rate                         : 5 865 Kbps
Movie name                               : Куда приводят мечты.(1998).BDRip.720p.[envy].[60fps]
Encoded date                             : UTC 2014-08-13 10:09:59
Writing application                      : mkvmerge v5.8.0 ('No Sleep / Pillow') built on Sep  2 2012 15:37:04
Writing library                          : libebml v1.2.3 + libmatroska v1.3.0
Video
ID                                       : 1
Format                                   : AVC
Format/Info                              : Advanced Video Codec
Format profile                           : High@L4.1
Format settings, CABAC                   : Yes
Format settings, ReFrames                : 9 frames
Codec ID                                 : V_MPEG4/ISO/AVC
Duration                                 : 1h 53mn
Bit rate                                 : 4 980 Kbps
Width                                    : 1 280 pixels
Height                                   : 544 pixels
Display aspect ratio                     : 2.35:1
Frame rate mode                          : Constant
Frame rate                               : 59.880 fps
Original frame rate                      : 59.940 fps
Color space                              : YUV
Chroma subsampling                       : 4:2:0
Bit depth                                : 8 bits
Scan type                                : Progressive
Bits/(Pixel*Frame)                       : 0.119
Stream size                              : 3.85 GiB (83%)
Title                                    : Куда приводят мечты.(1998).BDRip.720p.[envy].[60fps]
Writing library                          : x264 core 130 r2273 b3065e6
Encoding settings                        : cabac=1 / ref=9 / deblock=1:0:0 / analyse=0x3:0x133 / me=umh / subme=10 / psy=1 / psy_rd=1.00:0.10 / mixed_ref=1 / me_range=28 / chroma_me=1 / trellis=2 / 8x8dct=1 / cqm=0 / deadzone=21,11 / fast_pskip=0 / chroma_qp_offset=-3 / threads=12 / lookahead_threads=1 / sliced_threads=0 / nr=0 / decimate=1 / interlaced=0 / bluray_compat=0 / constrained_intra=0 / bframes=5 / b_pyramid=2 / b_adapt=2 / b_bias=0 / direct=3 / weightb=1 / open_gop=0 / weightp=2 / keyint=250 / keyint_min=25 / scenecut=40 / intra_refresh=0 / rc=2pass / mbtree=0 / bitrate=4980 / ratetol=1.0 / qcomp=0.60 / qpmin=0 / qpmax=69 / qpstep=4 / cplxblur=20.0 / qblur=0.5 / ip_ratio=1.40 / pb_ratio=1.30 / aq=1:1.00
Language                                 : English
Default                                  : Yes
Forced                                   : No
Audio #1
ID                                       : 2
Format                                   : AC-3
Format/Info                              : Audio Coding 3
Mode extension                           : CM (complete main)
Format settings, Endianness              : Big
Codec ID                                 : A_AC3
Duration                                 : 1h 53mn
Bit rate mode                            : Constant
Bit rate                                 : 448 Kbps
Channel(s)                               : 6 channels
Channel positions                        : Front: L C R, Side: L R, LFE
Sampling rate                            : 48.0 KHz
Bit depth                                : 16 bits
Compression mode                         : Lossy
Stream size                              : 364 MiB (8%)
Title                                    : Dub
Language                                 : Russian
Default                                  : Yes
Forced                                   : No
Audio #2
ID                                       : 3
Format                                   : AC-3
Format/Info                              : Audio Coding 3
Mode extension                           : CM (complete main)
Format settings, Endianness              : Big
Codec ID                                 : A_AC3
Duration                                 : 1h 53mn
Bit rate mode                            : Constant
Bit rate                                 : 448 Kbps
Channel(s)                               : 6 channels
Channel positions                        : Front: L C R, Side: L R, LFE
Sampling rate                            : 48.0 KHz
Bit depth                                : 16 bits
Compression mode                         : Lossy
Stream size                              : 364 MiB (8%)
Title                                    : Eng
Language                                 : English
Default                                  : No
Forced                                   : No
Text #1
ID                                       : 4
Format                                   : UTF-8
Codec ID                                 : S_TEXT/UTF8
Codec ID/Info                            : UTF-8 Plain Text
Title                                    : full
Language                                 : Russian
Default                                  : No
Forced                                   : No
Text #2
ID                                       : 5
Format                                   : UTF-8
Codec ID                                 : S_TEXT/UTF8
Codec ID/Info                            : UTF-8 Plain Text
Title                                    : full
Language                                 : English
Default                                  : No
Forced                                   : No
Menu
00:00:00.000                             : :Chapter 01
00:04:59.632                             : :Chapter 02
00:07:43.921                             : :Chapter 03
00:12:49.101                             : :Chapter 04
00:20:04.870                             : :Chapter 05
00:24:35.432                             : :Chapter 06
00:34:14.844                             : :Chapter 07
00:42:08.192                             : :Chapter 08
00:51:35.717                             : :Chapter 09
00:57:18.435                             : :Chapter 10
01:00:12.942                             : :Chapter 11
01:04:32.743                             : :Chapter 12
01:13:40.541                             : :Chapter 13
01:20:04.257                             : :Chapter 14
01:23:17.367                             : :Chapter 15
01:27:38.002                             : :Chapter 16
01:35:24.009                             : :Chapter 17
01:43:37.669                             : :Chapter 18
01:46:01.354                             : :Chapter 19
01:53:43.566                             : :Chapter 20

_________________
[Торрент-статистика]
[Профиль]  [ЛС] 
Показать сообщения:    
Ответить на тему

Текущее время: Сегодня 01:45

Часовой пояс: GMT + 4



Вы не можете начинать темы
Вы не можете отвечать на сообщения
Вы не можете редактировать свои сообщения
Вы не можете удалять свои сообщения
Вы не можете голосовать в опросах
Вы не можете прикреплять файлы к сообщениям
Вы не можете скачивать файлы