Залечь на дно в Брюгге / In Bruges (Мартин МакДонах / Martin McDonagh) [2007, США, Великобритания, триллер, драма, комедия, криминал, BDRip 720p] Dub + 3xAVO (В.Завгородний, Ю.Немахов, К.Поздняков) + UKR MVO + Sub Rus + Original Eng

Ответить на тему
 
Автор
Сообщение

awk05 ®

Пол:

Стаж: 4 года 5 месяцев

Сообщений: 1352

Репутация: 275 [+] [-]

Откуда: Западная Украина Ривне

Пост 12-Авг-2014 23:05

[Цитировать] 

--Залечь на дно в Брюгге / In Bruges«Сначала стреляй, потом гуляй»-- Страна: США, Великобритания
Жанр: триллер, драма, комедия, криминал
Год выпуска: 2007
Продолжительность: 01:46:48
Перевод: Профессиональный (дублированный), Авторский (одноголосый закадровый) Владимир Завгородний,
Юрий Немахов, Константин Поздняков, Профессиональный (многоголосый, закадровый) Так Треба Продакшн, Original
Cубтитры: Russian, English, French--Режиссер: Мартин МакДонах / Martin McDonagh--В ролях: Колин Фаррелл (Ray), Брендан Глисон (Ken), Рэйф Файнс (Harry), Клеманс Поэзи (Chloe), Джордан Прентис (Jimmy), Элизабет Беррингтон (Natalie), Текла Рютен (Marie), Желько Иванек (Canadian Guy), Руди Бломм (Ticket Seller), Анна Маделей (Denise), Оливье Бонжур (Film Director), Марк Донован (Overweight Man), и др.--Описание: Два наемных убийцы получают от босса задание - провернуть одно дело в Лондоне, но это дело они проваливают. Босс отправляет их в тихий городок Брюгге, чтобы там они могли отсидеться, пока уляжется весь шум. В Брюгге киллеры отдыхают и развлекаются, пока один из них не получает задание – убрать второго киллера. Но, за время, проведенное вместе, киллеры так сдружились, что поднять пистолет друг на друга уже не могут. Тогда босс сам решает отправиться в Брюгге, чтобы самостоятельно устранить обоих неудачливых киллеров.--Качество видео: BDRip 720p
Формат видео: MKV
Видео кодек: AVC (High@L4.1)
Аудио кодек: AC-3
Видео: AVC, 1280x544 (2.35:1), 24.000 fps, 7 597 Kbps (0.455 bit/pixel)
Аудио 1: AC-3, 48.0 KHz, 6 ch, 448 Kbps, CBR, 16 бит [Русский] DUB
Аудио 2: AC-3, 48.0 KHz, 6 ch, 640 Kbps, CBR, 16 бит [Русский] AVO (В.Завгородний)
Аудио 3: AC-3, 48.0 KHz, 6 ch, 640 Kbps, CBR, 16 бит [Русский] AVO (Ю.Немахов)
Аудио 4: AC-3, 48.0 KHz, 6 ch, 640 Kbps, CBR, 16 бит [Русский] AVO (К.Поздняков)
Аудио 5: AC-3, 48.0 KHz, 1 ch, 96 Kbps, CBR, 16 бит [Украинский] MVO (Так Треба Продакшн)
Аудио 6: AC-3, 48.0 KHz, 6 ch, 640 Kbps, CBR, 16 бит [Английский] -- --

Знаете ли Вы, что...

* В трейлере фильма слово «fucking» произносится 14 раз.
* Идея фильма у Мартина МакДонаха родилась после того, как он посетил Брюгге и испытал два противоречивых чувства: глубокий восторг и ужасную скуку. Отсюда и разное отношение к городу двух главных героев.
* Слово «Fuck» в разных вариациях произносится в фильме 137 раз. (9 минута).

Кадры из фильма

Тех. данные (MI)

Код:
Общее
Уникальный идентификатор : 214023484029685728240046832362144106056 (0xA1036C759A78939BAB78A7CC1F578648)
Полное имя : Z:\Cdjb\In.Bruges.2008.720p.BluRay.DD5.1.x264-EbP\In.Bruges.2008.720p.BluRayFRE.mkv
Формат : Matroska
Версия формата : Version 2
Размер файла : 8,14 Гбайт
Продолжительность : 1 ч. 46 м.
Общий поток : 10,9 Мбит/сек
Название фильма : In Bruges
Дата кодирования : UTC 2012-04-14 08:21:02
Программа кодирования : mkvmerge v5.2.0 ('I can't explain') built on Dec 18 2011 18:12:03
Библиотека кодирования : libebml v1.2.3 + libmatroska v1.3.0
Видео
Идентификатор : 1
Формат : AVC
Формат/Информация : Advanced Video Codec
Профиль формата : High@L4.1
Параметр CABAC формата : Да
Параметр ReFrames формата : 11 кадров
Идентификатор кодека : V_MPEG4/ISO/AVC
Продолжительность : 1 ч. 46 м.
Битрейт : 7597 Кбит/сек
Ширина : 1280 пикселей
Высота : 544 пикселя
Соотношение сторон : 2,35:1
Частота кадров : 24,000 кадра/сек
Цветовое пространство : YUV
Субдискретизация насыщенности : 4:2:0
Битовая глубина : 8 бит
Тип развёртки : Прогрессивная
Бит/(Пиксели*Кадры) : 0.455
Размер потока : 5,67 Гбайт (70%)
Библиотека кодирования : x264 core 122 r2184 5c85e0a
Настройки программы : cabac=1 / ref=11 / deblock=1:-3:-3 / analyse=0x3:0x113 / me=tesa / subme=11 / psy=1 / psy_rd=1.15:0.00 / mixed_ref=1 / me_range=16 / chroma_me=1 / trellis=2 / 8x8dct=1 / cqm=0 / deadzone=21,11 / fast_pskip=0 / chroma_qp_offset=-2 / threads=12 / sliced_threads=0 / nr=0 / decimate=0 / interlaced=0 / bluray_compat=0 / constrained_intra=0 / bframes=14 / b_pyramid=2 / b_adapt=2 / b_bias=0 / direct=3 / weightb=1 / open_gop=0 / weightp=2 / keyint=250 / keyint_min=24 / scenecut=40 / intra_refresh=0 / rc=crf / mbtree=0 / crf=17.8 / qcomp=0.70 / qpmin=0 / qpmax=69 / qpstep=4 / ip_ratio=1.20 / pb_ratio=1.10 / aq=2:0.75 / zones=145541,153570,b=0.1
Язык : English
Default : Да
Forced : Нет
Аудио #1
Идентификатор : 2
Формат : AC-3
Формат/Информация : Audio Coding 3
Расширение режима : CM (complete main)
Идентификатор кодека : A_AC3
Продолжительность : 1 ч. 46 м.
Вид битрейта : Постоянный
Битрейт : 448 Кбит/сек
Каналы : 6 каналов
Расположение каналов : Front: L C R, Side: L R, LFE
Частота : 48,0 КГц
Битовая глубина : 16 бит
Метод сжатия : С потерями
Задержка видео : 30 мс.
Размер потока : 342 Мбайт (4%)
Заголовок : DUB
Язык : Russian
Default : Да
Forced : Нет
Аудио #2
Идентификатор : 3
Формат : AC-3
Формат/Информация : Audio Coding 3
Расширение режима : CM (complete main)
Идентификатор кодека : A_AC3
Продолжительность : 1 ч. 46 м.
Вид битрейта : Постоянный
Битрейт : 640 Кбит/сек
Каналы : 6 каналов
Расположение каналов : Front: L C R, Side: L R, LFE
Частота : 48,0 КГц
Битовая глубина : 16 бит
Метод сжатия : С потерями
Задержка видео : 30 мс.
Размер потока : 489 Мбайт (6%)
Заголовок : AVO (В.Завгородний)
Язык : Russian
Default : Нет
Forced : Нет
Аудио #3
Идентификатор : 4
Формат : AC-3
Формат/Информация : Audio Coding 3
Расширение режима : CM (complete main)
Идентификатор кодека : A_AC3
Продолжительность : 1 ч. 46 м.
Вид битрейта : Постоянный
Битрейт : 640 Кбит/сек
Каналы : 6 каналов
Расположение каналов : Front: L C R, Side: L R, LFE
Частота : 48,0 КГц
Битовая глубина : 16 бит
Метод сжатия : С потерями
Задержка видео : 30 мс.
Размер потока : 489 Мбайт (6%)
Заголовок : AVO (Ю.Немахов)
Язык : Russian
Default : Нет
Forced : Нет
Аудио #4
Идентификатор : 5
Формат : AC-3
Формат/Информация : Audio Coding 3
Расширение режима : CM (complete main)
Идентификатор кодека : A_AC3
Продолжительность : 1 ч. 46 м.
Вид битрейта : Постоянный
Битрейт : 640 Кбит/сек
Каналы : 6 каналов
Расположение каналов : Front: L C R, Side: L R, LFE
Частота : 48,0 КГц
Битовая глубина : 16 бит
Метод сжатия : С потерями
Задержка видео : 30 мс.
Размер потока : 489 Мбайт (6%)
Заголовок : AVO (К.Поздняков)
Язык : Russian
Default : Нет
Forced : Нет
Аудио #5
Идентификатор : 6
Формат : AC-3
Формат/Информация : Audio Coding 3
Расширение режима : CM (complete main)
Идентификатор кодека : A_AC3
Продолжительность : 1 ч. 46 м.
Вид битрейта : Постоянный
Битрейт : 96,0 Кбит/сек
Каналы : 1 канал
Расположение каналов : Front: C
Частота : 48,0 КГц
Битовая глубина : 16 бит
Метод сжатия : С потерями
Задержка видео : 30 мс.
Размер потока : 73,3 Мбайт (1%)
Заголовок : MVO (Так Треба Продакшн)
Язык : Ukrainian
Default : Нет
Forced : Нет
Аудио #6
Идентификатор : 7
Формат : AC-3
Формат/Информация : Audio Coding 3
Расширение режима : CM (complete main)
Идентификатор кодека : A_AC3
Продолжительность : 1 ч. 46 м.
Вид битрейта : Постоянный
Битрейт : 640 Кбит/сек
Каналы : 6 каналов
Расположение каналов : Front: L C R, Side: L R, LFE
Частота : 48,0 КГц
Битовая глубина : 16 бит
Метод сжатия : С потерями
Размер потока : 489 Мбайт (6%)
Язык : English
Default : Нет
Forced : Нет
Текст #1
Идентификатор : 8
Формат : UTF-8
Идентификатор кодека : S_TEXT/UTF8
Идентификатор кодека/Информация : UTF-8 Plain Text
Заголовок : R5 (Paradise)
Язык : Russian
Default : Нет
Forced : Нет
Текст #2
Идентификатор : 9
Формат : UTF-8
Идентификатор кодека : S_TEXT/UTF8
Идентификатор кодека/Информация : UTF-8 Plain Text
Заголовок : Calavera
Язык : Russian
Default : Нет
Forced : Нет
Текст #3
Идентификатор : 10
Формат : UTF-8
Идентификатор кодека : S_TEXT/UTF8
Идентификатор кодека/Информация : UTF-8 Plain Text
Заголовок : Corvin
Язык : Russian
Default : Нет
Forced : Нет
Текст #4
Идентификатор : 11
Формат : UTF-8
Идентификатор кодека : S_TEXT/UTF8
Идентификатор кодека/Информация : UTF-8 Plain Text
Заголовок : hosco
Язык : Russian
Default : Нет
Forced : Нет
Текст #5
Идентификатор : 12
Формат : UTF-8
Идентификатор кодека : S_TEXT/UTF8
Идентификатор кодека/Информация : UTF-8 Plain Text
Заголовок : Motygin
Язык : Russian
Default : Нет
Forced : Нет
Текст #6
Идентификатор : 13
Формат : UTF-8
Идентификатор кодека : S_TEXT/UTF8
Идентификатор кодека/Информация : UTF-8 Plain Text
Заголовок : Pakhutkin (Atrokkus)
Язык : Russian
Default : Нет
Forced : Нет
Текст #7
Идентификатор : 14
Формат : UTF-8
Идентификатор кодека : S_TEXT/UTF8
Идентификатор кодека/Информация : UTF-8 Plain Text
Заголовок : Pozdnyakov
Язык : Russian
Default : Нет
Forced : Нет
Текст #8
Идентификатор : 15
Формат : UTF-8
Идентификатор кодека : S_TEXT/UTF8
Идентификатор кодека/Информация : UTF-8 Plain Text
Заголовок : Renks
Язык : Russian
Default : Нет
Forced : Нет
Текст #9
Идентификатор : 16
Формат : UTF-8
Идентификатор кодека : S_TEXT/UTF8
Идентификатор кодека/Информация : UTF-8 Plain Text
Заголовок : sunny-sko
Язык : Russian
Default : Нет
Forced : Нет
Текст #10
Идентификатор : 17
Формат : UTF-8
Идентификатор кодека : S_TEXT/UTF8
Идентификатор кодека/Информация : UTF-8 Plain Text
Заголовок : SDH
Язык : English
Default : Нет
Forced : Нет
Текст #11
Идентификатор : 18
Формат : UTF-8
Идентификатор кодека : S_TEXT/UTF8
Идентификатор кодека/Информация : UTF-8 Plain Text
Язык : French
Default : Нет
Forced : Нет
Меню
00:00:00.000 : en:Medieval Town
00:04:39.572 : en:Terrible Tourist
00:10:03.060 : en:Seeing the Sights
00:15:23.130 : en:Message Received
00:20:22.638 : en:Holy Blood
00:25:21.978 : en:Purgatory
00:30:35.959 : en:My Hometown
00:36:50.416 : en:Like a Fairy Tale
00:43:23.350 : en:Someone Nice
00:46:55.187 : en:Drowning Sorrows
00:50:38.660 : en:Choose a Side
00:54:25.679 : en:Suicidal
01:00:23.620 : en:Keep on Moving
01:07:18.117 : en:Back to Bruges
01:12:29.011 : en:Capacity to Change
01:17:46.161 : en:In Your Debt
01:23:53.987 : en:Last Chance
01:29:17.602 : en:Willing to Live
01:36:43.422 : en:Principles
01:41:15.694 : en:End Titles

_________________
[Торрент-статистика]
[Профиль]  [ЛС] 
Показать сообщения:    
Ответить на тему

Текущее время: Сегодня 14:45

Часовой пояс: GMT + 4



Вы не можете начинать темы
Вы не можете отвечать на сообщения
Вы не можете редактировать свои сообщения
Вы не можете удалять свои сообщения
Вы не можете голосовать в опросах
Вы не можете прикреплять файлы к сообщениям
Вы не можете скачивать файлы