Небритый нянь / Un homme au pair (Лорен Дюссо / Lauren Dussault) [2013 г., комедия, HDTV 1080i] MVO

Ответить на тему
 
Автор
Сообщение

awk05 ®

Пол:

Стаж: 8 лет 10 месяцев

Сообщений: 1334

Репутация: 278 [+] [-]

Откуда: Западная Украина Ривне

Пост 10-Авг-2014 22:28

[Цитировать] 

--Небритый нянь / Un homme au pair-- Год выхода: 2013
Жанр: комедия
Страна: Франция
Продолжительность: 01:24:54
Перевод: Профессиональный (многоголосый закадровый)
Субтитры: нет--Режиссер: Лорен Дюссо / Lauren Dussault--В ролях: Антуан Дюлери (Maxime), Валери Флан (Bikeuse), Гвендолин Амон (Claire), Софи-Шарлотт Юссон (Sophie), Clair Jaz (Mama Gonde), Tella Kpomahou (Maryse), Nathan Lourenço (Jérémy), Clair Magnin (Nicole), Надин Марковичи (Jeanne), Эстель Винсент (Samira)--О фильме: Воспитание лапочки-ребенка - дело крайне ответственное. покормить, постирать, напоить, поиграть, уследить за маленьким непоседой - задача не из легких. И все привыкли, что такими делами должна заниматься только заботливая женщина. Ну а как насчет мужчин? Клэр - деловая леди, которая много жизненного времени посвящает работе. Она - директор кадрового агентства, поэтому должна успевать везде и всегда. У нее есть девятилетний ребенок, которому Клэр наняла няну. Но вдруг на кануне крайне важной деловой встречи мать остается без няни. С кем же теперь оставить малыша? Или уже стоит сорвать встречу? И тут догадливая Клэр находит один выход, который разрулит ситуацию в выгодную сторону...--Качество видео: HDTV 1080i
Формат видео: TS
Видео кодек: AVC (High@L4.1)
Аудио кодек: MP-2
Видео: AVC, 1920x1080 (16:9), 25.000 fps, 9 057 Kbps (0.199 bit/pixel)
Аудио: MP-2, 48.0 KHz, 2 ch, 192 Kbps, CBR, 16 бит [Русский] -- --

Кадры из фильма

Тех. данные (MI)

Код:
Видео
Идентификатор : 224 (0xE0)
Идентификатор меню : 1 (0x1)
Формат : AVC
Формат/Информация : Advanced Video Codec
Профиль формата : High@L4.1
Параметр CABAC формата : Да
Параметр ReFrames формата : 3 кадра
Идентификатор кодека : 27
Продолжительность : 1 ч. 24 м.
Вид битрейта : Постоянный
Битрейт : 9057 Кбит/сек
Ширина : 1920 пикселей
Высота : 1080 пикселей
Соотношение сторон : 16:9
Частота кадров : 25,000 кадров/сек
Стандарт вещания : PAL
Цветовое пространство : YUV
Субдискретизация насыщенности : 4:2:0
Битовая глубина : 8 бит
Тип развёртки : Чересстрочная
Порядок развёртки : Верхнее поле /(Пиксели*Кадры) : 0.175
Размер потока : 5,27 Гбайт (93%)
Основные цвета : BT.709
Характеристики трансфера : BT.709
Коэффициенты матрицы : BT.709
Аудио
Идентификатор : 192 (0xC0)
Идентификатор меню : 1 (0x1)
Формат : MPEG Audio
Версия формата : Version 1
Профиль формата : Layer 2
Идентификатор кодека : 3
Продолжительность : 1 ч. 24 м.
Вид битрейта : Постоянный
Битрейт : 192 Кбит/сек
Каналы : 2 канала
Частота : 48,0 КГц
Метод сжатия : С потерями
Размер потока : 117 Мбайт (2%)
Язык : Russian

_________________
[Торрент-статистика]
[Профиль]  [ЛС] 
Показать сообщения:    
Ответить на тему

Текущее время: Сегодня 03:36

Часовой пояс: GMT + 4



Вы не можете начинать темы
Вы не можете отвечать на сообщения
Вы не можете редактировать свои сообщения
Вы не можете удалять свои сообщения
Вы не можете голосовать в опросах
Вы не можете прикреплять файлы к сообщениям
Вы не можете скачивать файлы