Немыслимое (Расширенная версия) / Unthinkable (Extended Cut) (Грегор Джордан / Gregor Jordan) [2010 г., Триллер, драма, BDRip 720p]MVO + AVO + Sub

Ответить на тему
 
Автор
Сообщение

awk05 ®

Пол:

Стаж: 8 лет 9 месяцев

Сообщений: 1334

Репутация: 278 [+] [-]

Откуда: Западная Украина Ривне

Пост 09-Авг-2014 03:51

[Цитировать] 

--Немыслимое (Расширенная версия)
Unthinkable (Extended Cut)
«На войне без правил законов нет»-- Год выпуска: 2010
Жанр: Триллер, драма
Выпущено: США, Lleju Productions, Sidney Kimmel Entertainment, Kimmel International
Продолжительность: 01:37:07
Перевод: Профессиональный многоголосый, авторский одноголосый
Субтитры: Русские, английские--Режиссер: Грегор Джордан / Gregor Jordan--В ролях: Сэмюэл Л. Джексон (Henry Harold «H» Humphries), Кэрри-Энн Мосс (Agent Helen Brody), Майкл Шин (Steven Arthur Younger), Стивен Рут (Charles Thompson), Лора Койович (Rina Humphries), Мартин Донован (Assistant Director Jack Saunders), Джил Беллоуз (Agent Vincent), Винсент Лареска (Agent Leandro), Брэндон Рут (Agent D.J. Jackson), Джошуа Харто (Agent ), Холмс Осборн (General Paulson), Майкл Эдвард Роуз (Colonel Kerkmejian), и др.--О фильме: США стоят на пороге катастрофы: где-то на американской территории заложены 3 ядерных взрывных устройства. Спецслужбам известно, что они должны взорваться в некий «час Х». Но, где и когда произойдут взрывы, которые сметут с лица земли миллионы людей? Страшную тайну хранит только один человек, и властям необходимо во что бы то ни стало заставить его говорить. Как далеко они готовы зайти ради этого?--Качество видео: BDRip 720p
Формат видео: MKV
Видео кодек: AVC (High@L4.1)
Аудио кодек: AC-3
Видео: AVC, 1280x692 (1.850), 23.976 fps, 8 946 Kbps (0.421 bit/pixel)
Аудио 1: AC-3, 48.0 KHz, 6 ch, 384 Kbps, CBR, 16 бит [Русский]
Аудио 2: AC-3, 48.0 KHz, 6 ch, 448 Kbps, CBR, 16 бит [Русский] (Андрей Гаврилов)
Аудио 3: AC-3, 48.0 KHz, 6 ch, 448 Kbps, CBR, 16 бит [Русский] (Юрий Сербин)
Аудио 4: AC-3, 48.0 KHz, 6 ch, 448 Kbps, CBR, 16 бит [Английский] -- --

Кадры из фильма

Тех. данные (MI)

Код:
Общее
Уникальный идентификатор                 : 208879046314276903973358469474815170542 (0x9D24A418EA37CE9CB581B731AEA1D7EE)
Полное имя                               : E:\тест\Unthinkable.2010.x264.BDRip.720p.mkv
Формат                                   : Matroska
Версия формата                           : Version 1
Размер файла                             : 7,24 Гбайт
Продолжительность                        : 1 ч. 37 м.
Общий поток                              : 10,7 Мбит/сек
Название фильма                          : Unthinkable.2010.[m]
Дата кодирования                         : UTC 2013-01-09 11:58:26
Программа кодирования                    : mkvmerge v2.1.0 ('Another Place To Fall') built on Aug 19 2007 13:40:07
Библиотека кодирования                   : libebml v0.7.7 + libmatroska v0.8.1
Видео
Идентификатор                            : 1
Формат                                   : AVC
Формат/Информация                        : Advanced Video Codec
Профиль формата                          : High@L4.1
Параметр CABAC формата                   : Да
Параметр ReFrames формата                : 9 кадров
Идентификатор кодека                     : V_MPEG4/ISO/AVC
Продолжительность                        : 1 ч. 37 м.
Битрейт                                  : 8946 Кбит/сек
Ширина                                   : 1280 пикселей
Высота                                   : 692 пикселя
Соотношение сторон                       : 1,85:1
Режим частоты кадров                     : Постоянный
Частота кадров                           : 23,976 кадра/сек
Цветовое пространство                    : YUV
Субдискретизация насыщенности            : 4:2:0
Битовая глубина                          : 8 бит
Тип развёртки                            : Прогрессивная
Бит/(Пиксели*Кадры)                      : 0.421
Размер потока                            : 5,92 Гбайт (82%)
Заголовок                                : Unthinkable.2010
Библиотека кодирования                   : x264 core 98 r1629 2e81ce1
Настройки программы                      : cabac=1 / ref=9 / deblock=1:-3:-3 / analyse=0x3:0x113 / me=tesa / subme=10 / psy=1 / psy_rd=1.10:0.00 / mixed_ref=1 / me_range=16 / chroma_me=1 / trellis=2 / 8x8dct=1 / cqm=0 / deadzone=21,11 / fast_pskip=0 / chroma_qp_offset=-2 / threads=6 / sliced_threads=0 / nr=0 / decimate=0 / interlaced=0 / constrained_intra=0 / bframes=8 / b_pyramid=2 / b_adapt=2 / b_bias=0 / direct=3 / weightb=1 / weightp=2 / keyint=250 / keyint_min=25 / scenecut=40 / intra_refresh=0 / rc=2pass / mbtree=0 / bitrate=8946 / ratetol=1.0 / qcomp=0.60 / qpmin=10 / qpmax=51 / qpstep=4 / cplxblur=20.0 / qblur=0.5 / ip_ratio=1.40 / pb_ratio=1.30 / aq=1:0.75
Язык                                     : English
Default                                  : Да
Forced                                   : Нет
Аудио #1
Идентификатор                            : 2
Формат                                   : AC-3
Формат/Информация                        : Audio Coding 3
Расширение режима                        : CM (complete main)
Параметр Endianness формата              : Big
Идентификатор кодека                     : A_AC3
Продолжительность                        : 1 ч. 37 м.
Вид битрейта                             : Постоянный
Битрейт                                  : 384 Кбит/сек
Каналы                                   : 6 каналов
Расположение каналов                     : Front: L C R, Side: L R, LFE
Частота                                  : 48,0 КГц
Битовая глубина                          : 16 бит
Метод сжатия                             : С потерями
Размер потока                            : 267 Мбайт (4%)
Заголовок                                : MVO
Язык                                     : Russian
Default                                  : Да
Forced                                   : Нет
Аудио #2
Идентификатор                            : 3
Формат                                   : AC-3
Формат/Информация                        : Audio Coding 3
Расширение режима                        : CM (complete main)
Параметр Endianness формата              : Big
Идентификатор кодека                     : A_AC3
Продолжительность                        : 1 ч. 37 м.
Вид битрейта                             : Постоянный
Битрейт                                  : 448 Кбит/сек
Каналы                                   : 6 каналов
Расположение каналов                     : Front: L C R, Side: L R, LFE
Частота                                  : 48,0 КГц
Битовая глубина                          : 16 бит
Метод сжатия                             : С потерями
Размер потока                            : 311 Мбайт (4%)
Заголовок                                : Gavrilov
Язык                                     : Russian
Default                                  : Нет
Forced                                   : Нет
Аудио #3
Идентификатор                            : 4
Формат                                   : AC-3
Формат/Информация                        : Audio Coding 3
Расширение режима                        : CM (complete main)
Параметр Endianness формата              : Big
Идентификатор кодека                     : A_AC3
Продолжительность                        : 1 ч. 37 м.
Вид битрейта                             : Постоянный
Битрейт                                  : 448 Кбит/сек
Каналы                                   : 6 каналов
Расположение каналов                     : Front: L C R, Side: L R, LFE
Частота                                  : 48,0 КГц
Битовая глубина                          : 16 бит
Метод сжатия                             : С потерями
Размер потока                            : 311 Мбайт (4%)
Заголовок                                : Serbin
Язык                                     : Russian
Default                                  : Нет
Forced                                   : Нет
Аудио #4
Идентификатор                            : 5
Формат                                   : AC-3
Формат/Информация                        : Audio Coding 3
Расширение режима                        : CM (complete main)
Параметр Endianness формата              : Big
Идентификатор кодека                     : A_AC3
Продолжительность                        : 1 ч. 37 м.
Вид битрейта                             : Постоянный
Битрейт                                  : 448 Кбит/сек
Каналы                                   : 6 каналов
Расположение каналов                     : Front: L C R, Side: L R, LFE
Частота                                  : 48,0 КГц
Битовая глубина                          : 16 бит
Метод сжатия                             : С потерями
Размер потока                            : 311 Мбайт (4%)
Язык                                     : English
Default                                  : Нет
Forced                                   : Нет
Текст #1
Идентификатор                            : 6
Формат                                   : UTF-8
Идентификатор кодека                     : S_TEXT/UTF8
Идентификатор кодека/Информация          : UTF-8 Plain Text
Язык                                     : Russian
Default                                  : Нет
Forced                                   : Нет
Текст #2
Идентификатор                            : 7
Формат                                   : UTF-8
Идентификатор кодека                     : S_TEXT/UTF8
Идентификатор кодека/Информация          : UTF-8 Plain Text
Заголовок                                : SDH
Язык                                     : English
Default                                  : Нет
Forced                                   : Нет
Меню
00:00:00.000                             : en:00:00:00.000
00:04:30.896                             : en:00:04:30.896
00:10:19.494                             : en:00:10:19.494
00:15:23.131                             : en:00:15:23.131
00:19:52.983                             : en:00:19:52.983
00:25:29.486                             : en:00:25:29.486
00:29:13.335                             : en:00:29:13.335
00:35:22.120                             : en:00:35:22.120
00:40:32.639                             : en:00:40:32.639
00:47:36.562                             : en:00:47:36.562
00:53:36.797                             : en:00:53:36.797
00:58:34.177                             : en:00:58:34.177
01:04:05.675                             : en:01:04:05.675
01:08:56.007                             : en:01:08:56.007
01:15:51.589                             : en:01:15:51.589
01:22:00.374                             : en:01:22:00.374

_________________
[Торрент-статистика]
[Профиль]  [ЛС] 
Показать сообщения:    
Ответить на тему

Текущее время: Сегодня 10:18

Часовой пояс: GMT + 4



Вы не можете начинать темы
Вы не можете отвечать на сообщения
Вы не можете редактировать свои сообщения
Вы не можете удалять свои сообщения
Вы не можете голосовать в опросах
Вы не можете прикреплять файлы к сообщениям
Вы не можете скачивать файлы