Любовь - это идеальное преступление / L'amour est un crime parfait (Арно Ларьё / Arnaud Larrieu, Жан-Мари Ларьё / Jean-Marie Larrieu) [2013 ., Триллер, драма, BDRip 1080p]

Ответить на тему
 
Автор
Сообщение

awk05 ®

Пол:

Стаж: 8 лет 10 месяцев

Сообщений: 1334

Репутация: 278 [+] [-]

Откуда: Западная Украина Ривне

Пост 09-Авг-2014 00:29

[Цитировать] 

--Любовь - это идеальное преступление
L'amour est un crime parfait
-- Год выпуска: 2013
Жанр: Триллер, драма
Выпущено: Франция, Швейцария, Arena Films, Gaumont, arte France Cinema
Продолжительность: 01:50:33
Перевод: Профессиональный многоголосый
Субтитры: отсутствуют--Режиссер: Арно Ларьё / Arnaud Larrieu, Жан-Мари Ларьё / Jean-Marie Larrieu--В ролях: Матье Амальрик (Marc), Карин Вьяр (Marianne), Майвенн Ле Беско (Anna), Сара Форестье (Annie), Дени Подалидес (Richard), Бриджитт Ло Цицеро (Doublure Anna), Мэрион Дювал (Barbara), Дамьен Дорсаз (Le jeune inspecteur), Карл фон Малаисе (Le motard), Anne-Laure Tondu (La serveuse), Alain Börek (Le collègue de Marc), Pierre Maillard(M. Marinelli), и др.--О фильме: У Марка, преподавателя литературы в лозаннском университете, репутация коллекционера любовных приключений со своими студентками. Одна из самых ярких завоеванных им студенток исчезает, и через несколько дней после этого Марк встречает Анну, которая стремится больше узнать об исчезновении своей падчерицы.--Качество видео: BDRip 1080p
Формат видео: MKV
Видео кодек: AVC (High@L4.1)
Аудио кодек: AC-3, DTS
Видео: AVC, 1920x784 (2.40:1), 24.000 fps, 8 398 Kbps (0.232 bit/pixel)
Аудио 1: AC-3, 48.0 KHz, 2 ch, 192 Kbps, CBR, 16 бит [Русский]
Аудио 2: DTS, 48.0 KHz, 6 ch, 1510 Kbps, CBR, 16 бит [Французский] -- --

Кадры из фильма

Тех. данные (MI)

Код:
Общее
Уникальный идентификатор                 : 237197083869154490460932422415881946707 (0xB2727F24BFB71753ABA091F347314653)
Полное имя                               : E:\тест\1ub0B.et0.idealjnoe.prectyplenie.2013.P.BDRip.1080p.mkv
Формат                                   : Matroska
Версия формата                           : Version 2
Размер файла                             : 7,80 Гбайт
Продолжительность                        : 1 ч. 50 м.
Общий поток                              : 10,1 Мбит/сек
Дата кодирования                         : UTC 2014-08-08 00:50:44
Программа кодирования                    : mkvmerge v4.0.0 ('The Stars were mine') сборка от Jun  6 2010 16:18:42
Библиотека кодирования                   : libebml v1.0.0 + libmatroska v1.0.0
Видео
Идентификатор                            : 1
Формат                                   : AVC
Формат/Информация                        : Advanced Video Codec
Профиль формата                          : High@L4.1
Параметр CABAC формата                   : Да
Параметр ReFrames формата                : 5 кадров
Идентификатор кодека                     : V_MPEG4/ISO/AVC
Продолжительность                        : 1 ч. 50 м.
Битрейт                                  : 8398 Кбит/сек
Ширина                                   : 1920 пикселей
Высота                                   : 784 пикселя
Соотношение сторон                       : 2,40:1
Режим частоты кадров                     : Постоянный
Частота кадров                           : 24,000 кадра/сек
Цветовое пространство                    : YUV
Субдискретизация насыщенности            : 4:2:0
Битовая глубина                          : 8 бит
Тип развёртки                            : Прогрессивная
Бит/(Пиксели*Кадры)                      : 0.232
Размер потока                            : 6,33 Гбайт (81%)
Библиотека кодирования                   : x264 core 142 r2431 ac76440
Настройки программы                      : cabac=1 / ref=5 / deblock=1:-3:-3 / analyse=0x3:0x113 / me=umh / subme=8 / psy=1 / psy_rd=1.00:0.00 / mixed_ref=1 / me_range=16 / chroma_me=1 / trellis=1 / 8x8dct=1 / cqm=0 / deadzone=21,11 / fast_pskip=1 / chroma_qp_offset=-2 / threads=12 / lookahead_threads=2 / sliced_threads=0 / nr=0 / decimate=1 / interlaced=0 / bluray_compat=0 / constrained_intra=0 / bframes=3 / b_pyramid=2 / b_adapt=2 / b_bias=0 / direct=3 / weightb=1 / open_gop=0 / weightp=2 / keyint=240 / keyint_min=24 / scenecut=40 / intra_refresh=0 / rc_lookahead=50 / rc=2pass / mbtree=1 / bitrate=8398 / ratetol=1.0 / qcomp=0.60 / qpmin=0 / qpmax=69 / qpstep=4 / cplxblur=20.0 / qblur=0.5 / ip_ratio=1.40 / aq=1:1.00
Язык                                     : English
Default                                  : Нет
Forced                                   : Нет
Аудио #1
Идентификатор                            : 2
Формат                                   : AC-3
Формат/Информация                        : Audio Coding 3
Расширение режима                        : CM (complete main)
Параметр Endianness формата              : Big
Идентификатор кодека                     : A_AC3
Продолжительность                        : 1 ч. 50 м.
Вид битрейта                             : Постоянный
Битрейт                                  : 192 Кбит/сек
Каналы                                   : 2 канала
Расположение каналов                     : Front: L R
Частота                                  : 48,0 КГц
Битовая глубина                          : 16 бит
Метод сжатия                             : С потерями
Размер потока                            : 152 Мбайт (2%)
Язык                                     : Russian
Default                                  : Да
Forced                                   : Да
Аудио #2
Идентификатор                            : 3
Формат                                   : DTS
Формат/Информация                        : Digital Theater Systems
Режим                                    : 16
Параметр Endianness формата              : Big
Идентификатор кодека                     : A_DTS
Продолжительность                        : 1 ч. 50 м.
Вид битрейта                             : Постоянный
Битрейт                                  : 1509 Кбит/сек
Каналы                                   : 6 каналов
Расположение каналов                     : Front: L C R, Side: L R, LFE
Частота                                  : 48,0 КГц
Битовая глубина                          : 24 бит
Метод сжатия                             : С потерями
Задержка видео                           : 11 мс.
Размер потока                            : 1,17 Гбайт (15%)
Заголовок                                : French DTS 1509kbps
Язык                                     : French
Default                                  : Нет
Forced                                   : Нет
Меню
00:00:00.000                             : en:00:00:00.000
00:08:07.500                             : en:00:08:07.500
00:19:23.083                             : en:00:19:23.083
00:29:36.958                             : en:00:29:36.958
00:37:53.375                             : en:00:37:53.375
00:47:14.250                             : en:00:47:14.250
00:55:30.500                             : en:00:55:30.500
01:05:00.167                             : en:01:05:00.167
01:16:24.500                             : en:01:16:24.500
01:26:01.208                             : en:01:26:01.208
01:34:05.708                             : en:01:34:05.708
01:44:33.875                             : en:01:44:33.875

_________________
[Торрент-статистика]
[Профиль]  [ЛС] 
Показать сообщения:    
Ответить на тему

Текущее время: Сегодня 07:02

Часовой пояс: GMT + 4



Вы не можете начинать темы
Вы не можете отвечать на сообщения
Вы не можете редактировать свои сообщения
Вы не можете удалять свои сообщения
Вы не можете голосовать в опросах
Вы не можете прикреплять файлы к сообщениям
Вы не можете скачивать файлы