В белом плену / Снежная тюрьма / Into the White (Петтер Несс / Petter Ness) [2012, Норвегия, Швеция, боевик, драма, военный, история, BDRip 720p] MVO R5 + Sub Rus

Ответить на тему
 
Автор
Сообщение

awk05 ®

Пол:

Стаж: 8 лет 9 месяцев

Сообщений: 1334

Репутация: 278 [+] [-]

Откуда: Западная Украина Ривне

Пост 08-Авг-2014 02:03

[Цитировать] 

--В белом плену / Снежная тюрьма / Into the White --Страна: Норвегия, Швеция
Жанр: боевик, драма, военный, история
Год выпуска: 2012
Продолжительность: 01:39:58
Перевод: Профессиональный (многоголосый закадровый) Лицензия R5
Субтитры: Русские, Английские--Режиссёр: Петтер Несс / Petter Ness --
В ролях: Флориан Лукас (Leutnant Horst Schopis), Давид Кросс (Unteroffizier Josef Schwartz), Ким Хёуген (Bjørn Gustavsen - Norwegian Ski Patrol), Стиг Хенрик Хофф (Feldwebel Wolfgang Strunk), Локлен Нибор (Captain Charles P. Davenport), Руперт Гринт (Gunner Robert Smith), Кнут Йонер (Harald Gustavsen - Norwegian Ski Patrol), Мортен Фальдаас (Terje - Norwegian Ski Patrol), Сондре Крогтофт Ларсен (Kjell - Norwegian Ski Patrol)--О фильме: Одним холодным зимним днем над территорией Норвегии разгорается жаркое сражение двух самолетов — немецкого и английского. В результате столкновения обе машины получают серьезные повреждения и падают в глухом норвежском лесу. Здесь, в изоляции от внешнего мира, враги вынуждены выживать вместе. Тяжелые условия и необходимость поддерживать друг друга постепенно превращают врагов в товарищей...--Качество видео: BDRip 720p
Формат видео: MKV
Видео кодек: AVC (High@L4.1)
Аудио кодек: AC-3
Видео: AVC, 1280x544 (2.35:1), 25.000 fps, 6 500 Kbps (0.373 bit/pixel)
Аудио 1: AC-3, 48.0 KHz, 6 ch, 384 Kbps, CBR, 16 бит [Русский]
Аудио 2: AC-3, 48.0 KHz, 6 ch, 640 Kbps, CBR, 16 бит [Английский] -- --

Знаете ли Вы, что...

* Фильм основан на реальных событиях. Имена немецких летчиков были сохранены, а британских изменены. Реальные имена британских летчиков — капитан Р. Т. Партридж (R. T. Partridge) (в фильме Дэвенпорт) и Р. С. Босток (R.S. Bostok) (в фильме Смит).
* Давенпорт упоминает, что в соответствии с Женевской конвенцией они (как военнопленные) вправе рассчитывать на некие удобства при размещении. 4-ая Женевская конвенция была провозглашена только в 1949 году, после окончания войны, и ни одно государство официально не ратифицировало свое принятие любой из четырех Женевских конвенций до этого года.

Кадры из фильма

Тех. данные (MI)

Код:
Общее
Уникальный идентификатор                 : 219586156456708643547182565397966396337 (0xA532C16280C93A93921E1421789C9BB1)
Полное имя                               : E:\тест\Into.the.White.2012.720p.BluRay.Rus.Eng.ac3.NorTV.0dayTeam.mkv
Формат                                   : Matroska
Версия формата                           : Version 2
Размер файла                             : 5,25 Гбайт
Продолжительность                        : 1 ч. 39 м.
Общий поток                              : 7524 Кбит/сек
Дата кодирования                         : UTC 2013-12-24 17:05:12
Программа кодирования                    : mkvmerge v4.9.1 ('Ich will') built on Jul 11 2011 23:53:15
Библиотека кодирования                   : libebml v1.2.1 + libmatroska v1.1.1
Видео
Идентификатор                            : 1
Формат                                   : AVC
Формат/Информация                        : Advanced Video Codec
Профиль формата                          : High@L4.1
Параметр CABAC формата                   : Да
Параметр ReFrames формата                : 12 кадров
Идентификатор кодека                     : V_MPEG4/ISO/AVC
Продолжительность                        : 1 ч. 39 м.
Битрейт                                  : 6500 Кбит/сек
Ширина                                   : 1280 пикселей
Высота                                   : 544 пикселя
Соотношение сторон                       : 2,35:1
Режим частоты кадров                     : Постоянный
Частота кадров                           : 25,000 кадров/сек
Цветовое пространство                    : YUV
Субдискретизация насыщенности            : 4:2:0
Битовая глубина                          : 8 бит
Тип развёртки                            : Прогрессивная
Бит/(Пиксели*Кадры)                      : 0.373
Размер потока                            : 4,43 Гбайт (84%)
Заголовок                                : Into the White 2012 720p BluRay DD5.1 x264-NorTV
Библиотека кодирования                   : x264 core 125 r2200 999b753
Настройки программы                      : cabac=1 / ref=12 / deblock=1:-3:-3 / analyse=0x3:0x133 / me=umh / subme=10 / psy=1 / psy_rd=1.10:0.00 / mixed_ref=1 / me_range=24 / chroma_me=1 / trellis=2 / 8x8dct=1 / cqm=0 / deadzone=21,11 / fast_pskip=1 / chroma_qp_offset=-2 / threads=12 / lookahead_threads=2 / sliced_threads=0 / nr=0 / decimate=1 / interlaced=0 / bluray_compat=0 / constrained_intra=0 / bframes=8 / b_pyramid=2 / b_adapt=2 / b_bias=0 / direct=3 / weightb=1 / open_gop=0 / weightp=2 / keyint=250 / keyint_min=25 / scenecut=40 / intra_refresh=0 / rc_lookahead=60 / rc=2pass / mbtree=1 / bitrate=6500 / ratetol=1.0 / qcomp=0.60 / qpmin=0 / qpmax=69 / qpstep=4 / cplxblur=20.0 / qblur=0.5 / vbv_maxrate=50000 / vbv_bufsize=50000 / nal_hrd=none / ip_ratio=1.40 / aq=1:0.70
Язык                                     : English
Default                                  : Нет
Forced                                   : Нет
Аудио #1
Идентификатор                            : 2
Формат                                   : AC-3
Формат/Информация                        : Audio Coding 3
Расширение режима                        : CM (complete main)
Параметр Endianness формата              : Big
Идентификатор кодека                     : A_AC3
Продолжительность                        : 1 ч. 39 м.
Вид битрейта                             : Постоянный
Битрейт                                  : 384 Кбит/сек
Каналы                                   : 6 каналов
Расположение каналов                     : Front: L C R, Side: L R, LFE
Частота                                  : 48,0 КГц
Битовая глубина                          : 16 бит
Метод сжатия                             : С потерями
Размер потока                            : 275 Мбайт (5%)
Заголовок                                : Лицензия, R5
Язык                                     : Russian
Default                                  : Да
Forced                                   : Нет
Аудио #2
Идентификатор                            : 3
Формат                                   : AC-3
Формат/Информация                        : Audio Coding 3
Расширение режима                        : CM (complete main)
Параметр Endianness формата              : Big
Идентификатор кодека                     : A_AC3
Продолжительность                        : 1 ч. 39 м.
Вид битрейта                             : Постоянный
Битрейт                                  : 640 Кбит/сек
Каналы                                   : 6 каналов
Расположение каналов                     : Front: L C R, Side: L R, LFE
Частота                                  : 48,0 КГц
Битовая глубина                          : 16 бит
Метод сжатия                             : С потерями
Размер потока                            : 458 Мбайт (9%)
Заголовок                                : Original
Язык                                     : English
Default                                  : Нет
Forced                                   : Нет
Текст #1
Идентификатор                            : 4
Формат                                   : UTF-8
Идентификатор кодека                     : S_TEXT/UTF8
Идентификатор кодека/Информация          : UTF-8 Plain Text
Заголовок                                : Sub-Dr.pro
Язык                                     : Russian
Default                                  : Нет
Forced                                   : Нет
Текст #2
Идентификатор                            : 5
Формат                                   : UTF-8
Идентификатор кодека                     : S_TEXT/UTF8
Идентификатор кодека/Информация          : UTF-8 Plain Text
Заголовок                                : Sub
Язык                                     : English
Default                                  : Нет
Forced                                   : Нет

_________________
[Торрент-статистика]
[Профиль]  [ЛС] 
Показать сообщения:    
Ответить на тему

Текущее время: Сегодня 10:11

Часовой пояс: GMT + 4



Вы не можете начинать темы
Вы не можете отвечать на сообщения
Вы не можете редактировать свои сообщения
Вы не можете удалять свои сообщения
Вы не можете голосовать в опросах
Вы не можете прикреплять файлы к сообщениям
Вы не можете скачивать файлы