Апокалипсис / End of the World (Стивен Р. Монро / Steven R. Monroe)[2013 г., Фантастика, Боевик, Комедия, BDRip 720p] MVO

Ответить на тему
 
Автор
Сообщение

awk05 ®

Пол:

Стаж: 8 лет 9 месяцев

Сообщений: 1334

Репутация: 278 [+] [-]

Откуда: Западная Украина Ривне

Пост 05-Авг-2014 17:46

[Цитировать] 

--Апокалипсис / End of the World -- Год выпуска: 2013
Производство: Канада, World Pictures, Syfy
Жанр: Фантастика, Боевик, Комедия
Продолжительность: 01:29:42
Перевод: Профессиональный (многоголосый закадровый)
Субтитры: Отсутствуют--Режиссер: Стивен Р. Монро / Steven R. Monroe --
Актеры: Грег Гранберг (Owen Stokes), Нил Грэйстон (Steve Palmer), Кэролайн Кейв (Selena), Марк Хилдрет (Max), Брэд Дуриф (Dr. Walter Brown), Меррилин Гэнн (Betty Palmer), Амитай Мэрморштейн (Leonard), Джон Шоу (Dr. Cochran), Серж Уд (General Ramis), Пол Херберт (Smythe), Фред Хендерсон (Bill), Роберт Молони (Reiser), Грэм Беддос (Louis), и др.--Описание фильма: Оуэн целыми днями торчит вместе со своими друзьями в видеомагазине и обожает смотреть фильмы про конец света. У него есть красивая подруга Селена, которая не на шутку устала от инфантильности своего парня. В ее день рождения они ссорятся, но выяснение отношений прерывает, как это ни парадоксально, апокалипсис. К счастью, у Оуэна и его приятелей из магазина есть все необходимое для встречи конца света. Борьба за выживание начинается!--Качество видео: BDRip 720p
Формат видео: MKV
Видео кодек: AVC (High@L4.1)
Аудио кодек: AC-3, DTS
Видео: AVC, 1280x720 (16:9), 23.976 fps, 4 360 Kbps (0.197 bit/pixel)
Аудио 1: AC-3, 48.0 KHz, 2 ch, 192 Kbps, CBR, 16 бит [Русский]
Аудио 2: DTS, 48.0 KHz, 6 ch, 768 Kbps, CBR, 24 бит [Английский] -- --

Кадры из фильма

Тех. данные (MI)

Код:
General
Complete name : O:\End.of.the.world.2013.720p.mkv
Format : Matroska
File size : 3.39 GiB
Duration : 1h 29mn
Overall bit rate : 5 415 Kbps
Encoded date : UTC 2013-12-01 18:51:34
Writing application : mkvmerge v6.3.0 ('You can't stop me!') built on Jun 28 2013 20:09:41
Writing library : libebml v1.3.0 + libmatroska v1.4.0
Video
ID : 1
Format : AVC
Format/Info : Advanced Video Codec
Format profile : High@L4.1
Format settings, CABAC : Yes
Format settings, ReFrames : 5 frames
Muxing mode : Container profile=Unknown@4.1
Codec ID : V_MPEG4/ISO/AVC
Duration : 1h 29mn
Bit rate : 4 360 Kbps
Nominal bit rate : 4 453 Kbps
Width : 1 280 pixels
Height : 720 pixels
Display aspect ratio : 16:9
Frame rate : 23.976 fps
Resolution : 8 bits
Colorimetry : 4:2:0
Scan type : Progressive
Bits/(Pixel*Frame) : 0.197
Stream size : 2.73 GiB (80%)
Writing library : x264 core 140 r2377 1ca7bb9
Encoding settings : cabac=1 / ref=5 / deblock=1:0:0 / analyse=0x3:0x133 / me=umh / subme=7 / psy=1 / psy_rd=1.00:0.00 / mixed_ref=1 / me_range=16 / chroma_me=1 / trellis=1 / 8x8dct=1 / cqm=0 / deadzone=21,11 / fast_pskip=0 / chroma_qp_offset=-2 / threads=12 / lookahead_threads=2 / sliced_threads=0 / nr=0 / decimate=1 / interlaced=0 / bluray_compat=0 / constrained_intra=0 / bframes=3 / b_pyramid=2 / b_adapt=1 / b_bias=0 / direct=1 / weightb=1 / open_gop=0 / weightp=2 / keyint=240 / keyint_min=23 / scenecut=40 / intra_refresh=0 / rc_lookahead=40 / rc=2pass / mbtree=1 / bitrate=4453 / ratetol=1.0 / qcomp=0.60 / qpmin=10 / qpmax=69 / qpstep=4 / cplxblur=20.0 / qblur=0.5 / ip_ratio=1.40 / aq=1:1.00
Audio #1
ID : 2
Format : AC-3
Format/Info : Audio Coding 3
Codec ID : A_AC3
Duration : 1h 29mn
Bit rate mode : Constant
Bit rate : 192 Kbps
Channel(s) : 2 channels
Channel positions : L R
Sampling rate : 48.0 KHz
Stream size : 123 MiB (4%)
Title : Профессиональный многоголосый
Language : Russian
Audio #2
ID : 3
Format : DTS
Format/Info : Digital Theater Systems
Codec ID : A_DTS
Duration : 1h 29mn
Bit rate mode : Constant
Bit rate : 755 Kbps
Channel(s) : 6 channels
Channel positions : Front: L C R, Surround: L R, LFE
Sampling rate : 48.0 KHz
Resolution : 16 bits
Stream size : 484 MiB (14%)
Menu
00:00:00.000 : en:00:00:00.000
00:04:20.009 : en:00:04:20.009
00:12:23.993 : en:00:12:23.993
00:20:17.007 : en:00:20:17.007
00:31:46.029 : en:00:31:46.029
00:36:58.424 : en:00:36:58.424
00:45:48.996 : en:00:45:48.996
00:55:08.930 : en:00:55:08.930
01:01:50.998 : en:01:01:50.998
01:08:56.966 : en:01:08:56.966
01:20:58.979 : en:01:20:58.979
01:25:41.928 : en:01:25:41.928

_________________
[Торрент-статистика]
[Профиль]  [ЛС] 
Показать сообщения:    
Ответить на тему

Текущее время: Сегодня 11:30

Часовой пояс: GMT + 4



Вы не можете начинать темы
Вы не можете отвечать на сообщения
Вы не можете редактировать свои сообщения
Вы не можете удалять свои сообщения
Вы не можете голосовать в опросах
Вы не можете прикреплять файлы к сообщениям
Вы не можете скачивать файлы