Теорема Зеро / The Zero Theorem ( Терри Гиллиам / Terry Gilliam) [2014 г., фантастика, триллер, драма, комедия, BDRip 720p] DUB Чистый звук

Ответить на тему
 
Автор
Сообщение

awk05 ®

Пол:

Стаж: 8 лет 9 месяцев

Сообщений: 1334

Репутация: 278 [+] [-]

Откуда: Западная Украина Ривне

Пост 05-Авг-2014 16:36

[Цитировать] 

-- Теорема Зеро / The Zero Theorem-- Год выхода: 2013
Жанр: фантастика, триллер, драма, комедия
Выпущено: США, Румыния, Великобритания, Франция
Продолжительность: 01:46:38
Озвучивание: Дублированное [Чистый звук] Официальный дубляж
Субтитры: French--Режиссёр: Терри Гиллиам / Terry Gilliam --
В ролях: Кристоф Вальц (Qohen Leth), Мелани Тьерри (Bainsley), Дэвид Тьюлис (Joby), Лукас Хеджес (Bob), Мэтт Дэймон (Management), Бен Уишоу (Doctor 3), Тильда Суинтон (Dr. Shrink-Rom), Санджив Бхаскар (Doctor 1), Ингрид Бису (Work Colleague), Руперт Френд (TV Presenter), Эмиль Хостина (Slim Clone), Тудор Истодор (Man on the street), Оливия Нита (Lady Shopper), и др.--О фильме: Эксцентричный компьютерный гений Коэн Лет бьется над неразрешимой теоремой. Благодаря костюму для виртуальной реальности, изобретенному мальчиком Бобом, Лету удается совершить путешествие в скрытое пространство и узнать тайну своей души. Эту разгадку ищет не только он сам, но и таинственный Менеджмент, который правит всем миром посредством всевидящих устройств под названием ManCams.--Качество видео: BDRip 720p
Формат видео: MKV
Видео кодек: AVC (High@L4.1)
Аудио кодек: MP3, AC-3
Видео: AVC, 1280x688 (1.860), 23.976 fps, 5 419 Kbps (0.257 bit/pixel)
Аудио 1: MP3, 44.1 KHz, 2 ch, 320 Kbps, CBR [Русский]
Аудио 2: AC-3, 48.0 KHz, 6 ch, 384 Kbps, CBR, 16 бит [Французский]
Аудио 2: AC-3, 48.0 KHz, 6 ch, 384 Kbps, CBR, 16 бит [Английский] -- --

Знаете ли Вы, что...

* Автора сценария Пэта Рашина и его жену можно увидеть в одной сцене. Они сидят на заднем плане на скамейке в парке. Его жена читает газету, а Пэт что-то пишет. На самом деле в этот момент он писал слова из сообщений, которые на протяжении всего фильма отображаются в бегущей строке «Mancom Motivational».

Кадры из фильма

Тех. данные (MI)

Код:
Общее
Уникальный идентификатор                 : 186863395767056076337993095984736810466 (0x8C9494B8997C48B08093E403D83EB5E2)
Полное имя                               : E:\тест\Teorema.Zero.2013.D.BDRip.720p.mkv
Формат                                   : Matroska
Версия формата                           : Version 4 / Version 2
Размер файла                             : 4,94 Гбайт
Продолжительность                        : 1 ч. 46 м.
Общий поток                              : 6636 Кбит/сек
Дата кодирования                         : UTC 2014-08-04 13:23:18
Программа кодирования                    : mkvmerge v7.0.0 ('Where We Going') 64bit built on Jun  9 2014 15:16:27
Библиотека кодирования                   : libebml v1.3.0 + libmatroska v1.4.1
Видео
Идентификатор                            : 1
Формат                                   : AVC
Формат/Информация                        : Advanced Video Codec
Профиль формата                          : High@L4.1
Параметр CABAC формата                   : Да
Параметр ReFrames формата                : 5 кадров
Идентификатор кодека                     : V_MPEG4/ISO/AVC
Продолжительность                        : 1 ч. 46 м.
Битрейт                                  : 5419 Кбит/сек
Ширина                                   : 1280 пикселей
Высота                                   : 688 пикселей
Соотношение сторон                       : 1,85:1
Режим частоты кадров                     : Постоянный
Частота кадров                           : 23,976 кадра/сек
Цветовое пространство                    : YUV
Субдискретизация насыщенности            : 4:2:0
Битовая глубина                          : 8 бит
Тип развёртки                            : Прогрессивная
Бит/(Пиксели*Кадры)                      : 0.257
Размер потока                            : 3,94 Гбайт (80%)
Библиотека кодирования                   : x264 core 142 r2431 ac76440
Настройки программы                      : cabac=1 / ref=5 / deblock=1:0:0 / analyse=0x3:0x113 / me=umh / subme=8 / psy=1 / psy_rd=1.00:0.00 / mixed_ref=1 / me_range=16 / chroma_me=1 / trellis=1 / 8x8dct=1 / cqm=0 / deadzone=21,11 / fast_pskip=1 / chroma_qp_offset=-2 / threads=12 / lookahead_threads=2 / sliced_threads=0 / nr=0 / decimate=1 / interlaced=0 / bluray_compat=0 / constrained_intra=0 / bframes=3 / b_pyramid=2 / b_adapt=2 / b_bias=0 / direct=3 / weightb=1 / open_gop=0 / weightp=2 / keyint=240 / keyint_min=24 / scenecut=40 / intra_refresh=0 / rc_lookahead=50 / rc=2pass / mbtree=1 / bitrate=5419 / ratetol=1.0 / qcomp=0.60 / qpmin=0 / qpmax=69 / qpstep=4 / cplxblur=20.0 / qblur=0.5 / ip_ratio=1.40 / aq=1:1.00
Язык                                     : English
Default                                  : Да
Forced                                   : Нет
Аудио #1
Идентификатор                            : 2
Формат                                   : MPEG Audio
Версия формата                           : Version 1
Профиль формата                          : Layer 3
Идентификатор кодека                     : A_MPEG/L3
Идентификатор кодека/Подсказка           : MP3
Продолжительность                        : 1 ч. 46 м.
Вид битрейта                             : Постоянный
Битрейт                                  : 320 Кбит/сек
Каналы                                   : 2 канала
Частота                                  : 44,1 КГц
Метод сжатия                             : С потерями
Размер потока                            : 244 Мбайт (5%)
Default                                  : Да
Forced                                   : Нет
Аудио #2
Идентификатор                            : 3
Формат                                   : AC-3
Формат/Информация                        : Audio Coding 3
Расширение режима                        : CM (complete main)
Параметр Endianness формата              : Big
Идентификатор кодека                     : A_AC3
Продолжительность                        : 1 ч. 46 м.
Вид битрейта                             : Постоянный
Битрейт                                  : 448 Кбит/сек
Каналы                                   : 6 каналов
Расположение каналов                     : Front: L C R, Side: L R, LFE
Частота                                  : 48,0 КГц
Битовая глубина                          : 16 бит
Метод сжатия                             : С потерями
Размер потока                            : 342 Мбайт (7%)
Заголовок                                : French AC3 448kbps
Язык                                     : French
Default                                  : Нет
Forced                                   : Нет
Аудио #3
Идентификатор                            : 4
Формат                                   : AC-3
Формат/Информация                        : Audio Coding 3
Расширение режима                        : CM (complete main)
Параметр Endianness формата              : Big
Идентификатор кодека                     : A_AC3
Продолжительность                        : 1 ч. 46 м.
Вид битрейта                             : Постоянный
Битрейт                                  : 448 Кбит/сек
Каналы                                   : 6 каналов
Расположение каналов                     : Front: L C R, Side: L R, LFE
Частота                                  : 48,0 КГц
Битовая глубина                          : 16 бит
Метод сжатия                             : С потерями
Размер потока                            : 342 Мбайт (7%)
Язык                                     : English
Default                                  : Нет
Forced                                   : Нет
Текст
Идентификатор                            : 5
Формат                                   : UTF-8
Идентификатор кодека                     : S_TEXT/UTF8
Идентификатор кодека/Информация          : UTF-8 Plain Text
Заголовок                                : Forced
Язык                                     : French
Default                                  : Да
Forced                                   : Да
Меню
00:00:00.000                             : en:00:00:00.000
00:06:37.647                             : en:00:06:37.647
00:12:12.690                             : en:00:12:12.690
00:19:10.107                             : en:00:19:10.107
00:24:34.056                             : en:00:24:34.056
00:31:51.284                             : en:00:31:51.284
00:38:37.982                             : en:00:38:37.982
00:47:40.066                             : en:00:47:40.066
00:53:06.725                             : en:00:53:06.725
01:00:53.275                             : en:01:00:53.275
01:05:01.356                             : en:01:05:01.356
01:12:18.834                             : en:01:12:18.834
01:20:29.366                             : en:01:20:29.366
01:27:04.261                             : en:01:27:04.261
01:32:19.701                             : en:01:32:19.701
01:40:42.828                             : en:01:40:42.828

_________________
[Торрент-статистика]
[Профиль]  [ЛС] 
Показать сообщения:    
Ответить на тему

Текущее время: Сегодня 10:37

Часовой пояс: GMT + 4



Вы не можете начинать темы
Вы не можете отвечать на сообщения
Вы не можете редактировать свои сообщения
Вы не можете удалять свои сообщения
Вы не можете голосовать в опросах
Вы не можете прикреплять файлы к сообщениям
Вы не можете скачивать файлы