Катастрофа на День независимости / Independence Daysaster (В.Д. Хоган / W.D. Hogan)[2013 г., фантастика, боевик, HDRip 720p]

Ответить на тему
 
Автор
Сообщение

awk05 ®

Пол:

Стаж: 8 лет 9 месяцев

Сообщений: 1334

Репутация: 278 [+] [-]

Откуда: Западная Украина Ривне

Пост 04-Авг-2014 21:53

[Цитировать] 

--Катастрофа на День независимости / Independence Daysaster-- Год выхода: 2013
Жанр: фантастика, боевик
Страна: Канада
Студия: Independence Day Productions
Продолжительность: 01:29:48
Перевод: Профессиональный (многоголосый закадровый)
Субтитры: нет--Режиссер: В.Д. Хоган / W.D. Hogan --
В ролях: Кэйси Дюбуа (Nick), Иэн Белчер (Todd), Андреа Брукс (Eliza), Николас Карелла (SETI Technician), Аарон Крэвен (Phillips), Ревард Дюфрен (Secret Service Agent), Лэйн Эдвардс (Major Preston), Эмили Холмс (Celia Lehman), Майкл Копса (General Moore), Райан Мерриман (Pete Garcette), и др.--О фильме: День Независимости превращается в настоящий апокалипсис. Президент на День Независимости решил отправиться в свой родной городок в провинцию. И в это время планета оказывается подвергнута нападению враждебных инопланетян ...--Качество видео: HDRip 720p
Формат видео: MKV
Видео кодек: AVC (Main@L4.1)
Аудио кодек: AC-3
Видео: AVC, 1280x720 (16:9), 25.000 fps, 4 311 Kbps (0.187 bit/pixel)
Аудио: AC-3, 48.0 KHz, 2 ch, 256 Kbps, CBR, 16 bits [Русский]
-- --

Кадры из фильма

Тех. данные (MI)

Код:
Общее
Уникальный идентификатор                 : 233174250541168556246718600394857179608 (0xAF6BBA25B2BCF37FBEB36F694482E9D8)
Полное имя                               : G:\тест\Independence Daysaster (2013)HDRip 720p.mkv
Формат                                   : Matroska
Версия формата                           : Version 4 / Version 2
Размер файла                             : 2,92 Гбайт
Продолжительность                        : 1 ч. 29 м.
Общий поток                              : 4659 Кбит/сек
Дата кодирования                         : UTC 2014-08-03 15:27:14
Программа кодирования                    : mkvmerge v7.0.0 ('Where We Going') 64bit built on Jun  9 2014 15:16:27
Библиотека кодирования                   : libebml v1.3.0 + libmatroska v1.4.1
Видео
Идентификатор                            : 1
Формат                                   : AVC
Формат/Информация                        : Advanced Video Codec
Профиль формата                          : Main@L4.1
Параметр CABAC формата                   : Да
Параметр ReFrames формата                : 8 кадров
Идентификатор кодека                     : V_MPEG4/ISO/AVC
Продолжительность                        : 1 ч. 29 м.
Битрейт                                  : 4311 Кбит/сек
Ширина                                   : 1280 пикселей
Высота                                   : 720 пикселей
Соотношение сторон                       : 16:9
Режим частоты кадров                     : Постоянный
Частота кадров                           : 25,000 кадров/сек
Цветовое пространство                    : YUV
Субдискретизация насыщенности            : 4:2:0
Битовая глубина                          : 8 бит
Тип развёртки                            : Прогрессивная
Бит/(Пиксели*Кадры)                      : 0.187
Размер потока                            : 2,70 Гбайт (93%)
Default                                  : Да
Forced                                   : Нет
Аудио
Идентификатор                            : 2
Формат                                   : AC-3
Формат/Информация                        : Audio Coding 3
Расширение режима                        : CM (complete main)
Параметр Endianness формата              : Big
Идентификатор кодека                     : A_AC3
Продолжительность                        : 1 ч. 29 м.
Вид битрейта                             : Постоянный
Битрейт                                  : 256 Кбит/сек
Каналы                                   : 2 канала
Расположение каналов                     : Front: L R
Частота                                  : 48,0 КГц
Битовая глубина                          : 16 бит
Метод сжатия                             : С потерями
Размер потока                            : 164 Мбайт (5%)
Default                                  : Да
Forced                                   : Нет

_________________
[Торрент-статистика]
[Профиль]  [ЛС] 

gal174

Пол:

Стаж: 9 лет 4 месяца

Сообщений: 1

Репутация: 0 [+] [-]

Пост 05-Авг-2014 14:19 (спустя 16 часов)

[Цитировать] 

Как фильм-то?
[Торрент-статистика]
[Профиль]  [ЛС] 
Показать сообщения:    
Ответить на тему

Текущее время: Сегодня 10:53

Часовой пояс: GMT + 4



Вы не можете начинать темы
Вы не можете отвечать на сообщения
Вы не можете редактировать свои сообщения
Вы не можете удалять свои сообщения
Вы не можете голосовать в опросах
Вы не можете прикреплять файлы к сообщениям
Вы не можете скачивать файлы