Верхом на пуле / Riding the Bullet (Мик Гэррис / Mick Garris) [2004 г., Ужасы, триллер, экранизация, BDRip 720p]MVO + Sub

Ответить на тему
 
Автор
Сообщение

awk05 ®

Пол:

Стаж: 8 лет 10 месяцев

Сообщений: 1334

Репутация: 278 [+] [-]

Откуда: Западная Украина Ривне

Пост 04-Авг-2014 21:20

[Цитировать] 

--Верхом на пуле / Riding the Bullet«Смерть путешествует налегке»-- Год выпуска: 2004
Страна: Германия, США, Канада
Жанр: Ужасы, триллер, экранизация
Продолжительность: 01:34:51
Перевод: Профессиональный (многоголосый, закадровый)
Субтитры: Russian, English--Режиссер: Мик Гэррис / Mick Garris --
В ролях: Джонатан Джексон ( Alan Parker), Дэвид Аркетт (George Staub), Клифф Робертсон (Farmer), Барбара Херши (Jean Parker), Эрика Кристенсен (Jessica Hadley), Бэрри В. Леви (Julian Parker), Джексон Уоррис (Alan - Age 6), http://www.kinopoisk.ru/name/4278/ (Alan - Age 12), Крис Готье (Hector Passmore), Робин Нилсен (Archie Howard), Мэтт Фрюэр (Mr. Clarkson), Кит Даллас (Orderly), Никки Кэтт (Ferris), и др.--Описание: Экранизация одноименного рассказа Стивена Кинга. Чтобы скорее навестить свою мать в больнице, Алан решает добираться автостопом, надеясь, что на глухих проселочных дорогах ему повезет с попутчиками. Для парня с богатым воображением путь навстречу неизвестности может стать захватывающим приключением, но Алан одержим смертью, и в эту ночь она станет его невидимым спутником.
Только она будет решать, кто повстречается Алану на полуночном шоссе, где царит зловещая тишина и кажется, что блестящая гладь асфальта ведет прямиком в ад…--Качество видео: BDRip 720p
Формат видео: MKV
Видео кодек: AVC (High@L4.1)
Аудио кодек: DTS
Видео: AVC, 1280x720 (16:9), 23.976 fps, 8 200 Kbps (0.371 bit/pixel)
Аудио 1: DTS, 48.0 KHz, 6 ch, 1 510 Kbps, CBR, 24 bits [Русский]
Аудио 2: DTS, 48.0 KHz, 6 ch, 1 510 Kbps, CBR, 24 bits [Английский] -- --

Кадры из фильма

Тех. данные (MI)

Код:
Общее
Уникальный идентификатор                 : 251820669517508162425335611353615394983 (0xBD72E594F16DF223BCD78CA4851968A7)
Полное имя                               : E:\тест\Riding.the.Bullet.2004x264.BDRip.(720p).-MediaClub.mkv
Формат                                   : Matroska
Версия формата                           : Version 4 / Version 2
Размер файла                             : 7,76 Гбайт
Продолжительность                        : 1 ч. 39 м.
Общий поток                              : 11,2 Мбит/сек
Название фильма                          :  -=MediaClub - Odessit=-
Дата кодирования                         : UTC 2014-03-19 10:56:12
Программа кодирования                    : mkvmerge v6.8.0 ('Theme for Great Cities') 64bit built on Mar  2 2014 21:34:26
Библиотека кодирования                   : libebml v1.3.0 + libmatroska v1.4.1
Видео
Идентификатор                            : 1
Формат                                   : AVC
Формат/Информация                        : Advanced Video Codec
Профиль формата                          : High@L4.1
Параметр CABAC формата                   : Да
Параметр ReFrames формата                : 9 кадров
Идентификатор кодека                     : V_MPEG4/ISO/AVC
Продолжительность                        : 1 ч. 39 м.
Битрейт                                  : 8200 Кбит/сек
Ширина                                   : 1280 пикселей
Высота                                   : 720 пикселей
Соотношение сторон                       : 16:9
Режим частоты кадров                     : Постоянный
Частота кадров                           : 23,976 кадра/сек
Цветовое пространство                    : YUV
Субдискретизация насыщенности            : 4:2:0
Битовая глубина                          : 8 бит
Тип развёртки                            : Прогрессивная
Бит/(Пиксели*Кадры)                      : 0.371
Размер потока                            : 5,51 Гбайт (71%)
Библиотека кодирования                   : x264 core 142 r2409+42 04be48a tMod [8-bit@4:2:0 X86_64]
Настройки программы                      : cabac=1 / ref=9 / deblock=1:-3:-3 / analyse=0x3:0x113 / me=umh / subme=11 / psy=1 / fade_compensate=0.00 / psy_rd=1.00:0.00 / mixed_ref=1 / me_range=32 / chroma_me=1 / trellis=2 / 8x8dct=1 / cqm=0 / deadzone=21,11 / fast_pskip=0 / chroma_qp_offset=-2 / threads=6 / lookahead_threads=1 / sliced_threads=0 / nr=0 / decimate=0 / interlaced=0 / bluray_compat=0 / constrained_intra=0 / fgo=0 / bframes=10 / b_pyramid=2 / b_adapt=2 / b_bias=0 / direct=3 / weightb=1 / open_gop=0 / weightp=2 / keyint=240 / keyint_min=23 / scenecut=40 / intra_refresh=0 / rc=2pass / mbtree=0 / bitrate=8200 / ratetol=1.0 / qcomp=0.60 / qpmin=0:0:0 / qpmax=69:69:69 / qpstep=4 / cplxblur=20.0 / qblur=0.5 / ip_ratio=1.40 / pb_ratio=1.30 / aq=2:0.80 / aq-sensitivity=10.00 / aq-factor=1.00:1.00:1.00 / aq2=0 / aq3=0
Язык                                     : English
Default                                  : Да
Forced                                   : Нет
Аудио #1
Идентификатор                            : 2
Формат                                   : DTS
Формат/Информация                        : Digital Theater Systems
Режим                                    : 16
Параметр Endianness формата              : Big
Идентификатор кодека                     : A_DTS
Продолжительность                        : 1 ч. 39 м.
Вид битрейта                             : Постоянный
Битрейт                                  : 1509 Кбит/сек
Каналы                                   : 6 каналов
Расположение каналов                     : Front: L C R, Side: L R, LFE
Частота                                  : 48,0 КГц
Битовая глубина                          : 16 бит
Метод сжатия                             : С потерями
Размер потока                            : 1,04 Гбайт (13%)
Заголовок                                : Профессиональный мнгогоголосый
Язык                                     : Russian
Default                                  : Да
Forced                                   : Нет
Аудио #2
Идентификатор                            : 3
Формат                                   : DTS
Формат/Информация                        : Digital Theater Systems
Режим                                    : 16
Параметр Endianness формата              : Big
Идентификатор кодека                     : A_DTS
Продолжительность                        : 1 ч. 39 м.
Вид битрейта                             : Постоянный
Битрейт                                  : 1509 Кбит/сек
Каналы                                   : 6 каналов
Расположение каналов                     : Front: L C R, Side: L R, LFE
Частота                                  : 48,0 КГц
Битовая глубина                          : 16 бит
Метод сжатия                             : С потерями
Размер потока                            : 1,04 Гбайт (13%)
Язык                                     : English
Default                                  : Нет
Forced                                   : Нет
Текст #1
Идентификатор                            : 4
Формат                                   : UTF-8
Идентификатор кодека                     : S_TEXT/UTF8
Идентификатор кодека/Информация          : UTF-8 Plain Text
Язык                                     : Russian
Default                                  : Нет
Forced                                   : Нет
Текст #2
Идентификатор                            : 5
Формат                                   : UTF-8
Идентификатор кодека                     : S_TEXT/UTF8
Идентификатор кодека/Информация          : UTF-8 Plain Text
Язык                                     : English
Default                                  : Нет
Forced                                   : Нет
Меню
00:00:00.000                             : :Chapter 01
00:10:00.141                             : :Chapter 02
00:19:02.432                             : :Chapter 03
00:25:25.190                             : :Chapter 04
00:32:40.333                             : :Chapter 05
00:40:28.968                             : :Chapter 06
00:48:43.295                             : :Chapter 07
01:01:33.564                             : :Chapter 08
01:05:50.237                             : :Chapter 09
01:11:04.718                             : :Chapter 10
01:18:49.140                             : :Chapter 11
01:29:16.893                             : :Chapter 12

_________________
[Торрент-статистика]
[Профиль]  [ЛС] 
Показать сообщения:    
Ответить на тему

Текущее время: Сегодня 03:37

Часовой пояс: GMT + 4



Вы не можете начинать темы
Вы не можете отвечать на сообщения
Вы не можете редактировать свои сообщения
Вы не можете удалять свои сообщения
Вы не можете голосовать в опросах
Вы не можете прикреплять файлы к сообщениям
Вы не можете скачивать файлы