Восток / The East (Зал Батманглидж / Zal Batmanglij) [2013 г., триллер, драма, BDRip 1080p]MVO + DVO + Sub

Ответить на тему
 
Автор
Сообщение

awk05 ®

Пол:

Стаж: 8 лет 10 месяцев

Сообщений: 1334

Репутация: 278 [+] [-]

Откуда: Западная Украина Ривне

Пост 04-Авг-2014 18:59

[Цитировать] 

--Восток / The East«Ты шпионишь за нами, а мы – за тобой»-- Год выпуска: 2013
Страна: США, Великобритания / Scott Free Productions
Жанр: триллер, драма
Продолжительность: 01:56:07
Перевод: Профессиональный многоголосый, любительский (двухголосый закадровый) [Александр Нелюбин, Ирина Грачева]
Субтитры: Русские, английские--Режиссер: Зал Батманглидж / Zal Batmanglij --
В ролях: Брит Марлинг (Sarah), Александр Скарсгард (Benji), Эллен Пейдж (Izzy), Тоби Кеббелл (Doc), Шайло Фернандес (Luca), Элдис Ходж (Thumbs), Даниэль МакДональд (Tess), Хиллари Бак (Eve), Патришия Кларксон (Sharon), Джейсон Риттер (Tim), Джулия Ормонд (Paige Williams), Билли Магнуссен (Porty McCabe), Вилбур Фицджералд (Robert McCabe), и др.--О фильме: «Восток» — название группировки экологических террористов, пытающейся отомстить аморальным корпорациям. Представительница спецслужб должна проникнуть в группировку.--Качество видео: BDRip 1080p
Формат видео: MKV
Видео кодек: AVC (High@L4.1)
Аудио кодек: AC-3
Видео: AVC, 1920x816 (2.35:1), 23.976 fps, 8 300 Kbps (0.221 bit/pixel)
Аудио 1: AC-3, 48.0 KHz, 6 ch, 384 Kbps, CBR, 16 бит [Русский]
Аудио 2: AC-3, 48.0 KHz, 6 ch, 448 Kbps, CBR, 16 бит [Русский]
Аудио 3: AC-3, 48.0 KHz, 6 ch, 384 Kbps, CBR, 16 бит [Английский] -- --

Кадры из фильма

Тех. данные (MI)

Код:
Формат : Matroska
Версия формата : Version 2
Размер файла : 7,77 Гбайт
Продолжительность : 1 ч. 56 м.
Общий поток : 9581 Кбит/сек
Название фильма : ~V ad~
Дата кодирования : UTC 2013-10-02 23:26:45
Программа кодирования : mkvmerge v6.4.1 ('Omega Point') built on Sep 16 2013 22:05:10
Библиотека кодирования : libebml v1.3.0 + libmatroska v1.4.1
Видео
Идентификатор : 1
Формат : AVC
Формат/Информация : Advanced Video Codec
Профиль формата : High@L4.1
Параметр CABAC формата : Да
Параметр ReFrames формата : 5 кадров
Идентификатор кодека : V_MPEG4/ISO/AVC
Продолжительность : 1 ч. 56 м.
Битрейт : 8300 Кбит/сек
Ширина : 1920 пикселей
Высота : 816 пикселей
Соотношение сторон : 2,35:1
Режим частоты кадров : Постоянный
Частота кадров : 23,976 кадра/сек
Цветовое пространство : YUV
Субдискретизация насыщенности : 4:2:0
Битовая глубина : 8 бит
Тип развёртки : Прогрессивная
Бит/(Пиксели*Кадры) : 0.221
Размер потока : 6,58 Гбайт (85%)
Заголовок : ~V~
Библиотека кодирования : x264 core 135 r2345 f0c1c53
Настройки программы : cabac=1 / ref=5 / deblock=1:-1:-1 / analyse=0x3:0x133 / me=umh / subme=11 / psy=1 / psy_rd=1.05:0.05 / mixed_ref=1 / me_range=32 / chroma_me=1 / trellis=2 / 8x8dct=1 / cqm=0 / deadzone=21,11 / fast_pskip=0 / chroma_qp_offset=-3 / threads=12 / lookahead_threads=1 / sliced_threads=0 / nr=0 / decimate=0 / interlaced=0 / bluray_compat=0 / constrained_intra=0 / bframes=8 / b_pyramid=2 / b_adapt=2 / b_bias=0 / direct=3 / weightb=1 / open_gop=0 / weightp=2 / keyint=240 / keyint_min=23 / scenecut=40 / intra_refresh=0 / rc=2pass / mbtree=0 / bitrate=8300 / ratetol=1.0 / qcomp=0.60 / qpmin=0 / qpmax=69 / qpstep=4 / cplxblur=20.0 / qblur=0.5 / ip_ratio=1.40 / pb_ratio=1.30 / aq=1:0.70
Язык : English
Default : Да
Forced : Нет
Аудио #1
Идентификатор : 2
Формат : AC-3
Формат/Информация : Audio Coding 3
Расширение режима : CM (complete main)
Параметр Endianness формата : Big
Идентификатор кодека : A_AC3
Продолжительность : 1 ч. 56 м.
Вид битрейта : Постоянный
Битрейт : 384 Кбит/сек
Каналы : 6 каналов
Расположение каналов : Front: L C R, Side: L R, LFE
Частота : 48,0 КГц
Битовая глубина : 16 бит
Метод сжатия : С потерями
Размер потока : 319 Мбайт (4%)
Заголовок : DD 5.1, 384 kbps - многоголосый закадровый
Язык : Russian
Default : Да
Forced : Нет
Аудио #2
Идентификатор : 3
Формат : AC-3
Формат/Информация : Audio Coding 3
Расширение режима : CM (complete main)
Параметр Endianness формата : Big
Идентификатор кодека : A_AC3
Продолжительность : 1 ч. 56 м.
Вид битрейта : Постоянный
Битрейт : 448 Кбит/сек
Каналы : 6 каналов
Расположение каналов : Front: L C R, Side: L R, LFE
Частота : 48,0 КГц
Битовая глубина : 16 бит
Метод сжатия : С потерями
Размер потока : 372 Мбайт (5%)
Заголовок : DD 5.1, 448 kbps - Александр Нелюбин, Ирина Грачева
Язык : Russian
Default : Нет
Forced : Нет
Аудио #3
Идентификатор : 6
Формат : AC-3
Формат/Информация : Audio Coding 3
Расширение режима : CM (complete main)
Параметр Endianness формата : Big
Идентификатор кодека : A_AC3
Продолжительность : 1 ч. 56 м.
Вид битрейта : Постоянный
Битрейт : 448 Кбит/сек
Каналы : 6 каналов
Расположение каналов : Front: L C R, Side: L R, LFE
Частота : 48,0 КГц
Битовая глубина : 16 бит
Метод сжатия : С потерями
Размер потока : 372 Мбайт (5%)
Заголовок : DD 5.1, 448 kbps - оригинал
Язык : English
Default : Нет
Forced : Нет
Текст #1
Идентификатор : 4
Формат : UTF-8
Идентификатор кодека : S_TEXT/UTF8
Идентификатор кодека/Информация : UTF-8 Plain Text
Язык : Russian
Default : Нет
Forced : Нет
Текст #2
Идентификатор : 5
Формат : UTF-8
Идентификатор кодека : S_TEXT/UTF8
Идентификатор кодека/Информация : UTF-8 Plain Text
Язык : English
Default : Нет
Forced : Нет
Меню
00:00:00.000 : :Chapter 01
00:02:10.088 : :Chapter 03
00:06:41.567 : :Chapter 05
00:09:34.365 : :Chapter 07
00:12:00.553 : :Chapter 09
00:14:17.314 : :Chapter 11
00:18:11.924 : :Chapter 13
00:22:01.737 : :Chapter 15
00:26:29.254 : :Chapter 17
00:28:41.845 : :Chapter 19
00:31:14.873 : :Chapter 21
00:35:06.479 : :Chapter 23
00:39:20.358 : :Chapter 25
00:45:40.112 : :Chapter 27
00:47:18.752 : :Chapter 29
00:50:39.286 : :Chapter 31
00:52:36.903 : :Chapter 33
00:56:18.458 : :Chapter 35
01:00:59.697 : :Chapter 37
01:05:50.947 : :Chapter 39
01:10:32.603 : :Chapter 41
01:12:03.235 : :Chapter 43
01:14:40.267 : :Chapter 45
01:19:24.217 : :Chapter 47
01:23:11.861 : :Chapter 49
01:27:02.467 : :Chapter 51
01:29:36.579 : :Chapter 53
01:32:01.390 : :Chapter 55
01:35:03.698 : :Chapter 57
01:38:10.885 : :Chapter 59
01:40:42.745 : :Chapter 61
01:43:14.771 : :Chapter 63
01:45:04.589 : :Chapter 65
01:48:00.974 : :Chapter 67
01:49:59.718 : :Chapter 69
01:51:27.222 : :Chapter 71
01:56:07.752 : :Chapter 72

_________________
[Торрент-статистика]
[Профиль]  [ЛС] 
Показать сообщения:    
Ответить на тему

Текущее время: Сегодня 00:42

Часовой пояс: GMT + 4



Вы не можете начинать темы
Вы не можете отвечать на сообщения
Вы не можете редактировать свои сообщения
Вы не можете удалять свои сообщения
Вы не можете голосовать в опросах
Вы не можете прикреплять файлы к сообщениям
Вы не можете скачивать файлы